<?xml version="1.0" standalone="no"?>
<!DOCTYPE svg PUBLIC "-//W3C//DTD SVG 1.1//EN" "http://www.w3.org/Graphics/SVG/1.1/DTD/svg11.dtd" >
<svg xmlns="http://www.w3.org/2000/svg">
<metadata>
This is a custom SVG webfont generated by Font Squirrel.
Copyright   : Copyright c 2011 by Tyler Finck All rights reserved
Designer    : Tyler Finck
Foundry     : Tyler Finck
Foundry URL : httpwwwsurslycom
</metadata>
<defs>
<font id="OstrichSansCondensedLight" horiz-adv-x="1705" >
<font-face units-per-em="2048" ascent="1536" descent="-512" />
<missing-glyph horiz-adv-x="430" />
<glyph unicode=" "  horiz-adv-x="430" />
<glyph unicode="&#x09;" horiz-adv-x="430" />
<glyph unicode="&#xa0;" horiz-adv-x="430" />
<glyph unicode="!" horiz-adv-x="100" d="M8 0v33h10v-33h-10zM8 201v1126h10v-1126h-10z" />
<glyph unicode="&#x22;" horiz-adv-x="256" d="M2 1184v127h10v-127h-10zM125 1184v127h10v-127h-10z" />
<glyph unicode="#" horiz-adv-x="1040" d="M12 463v10h295l74 379h-303v8h305l92 467h8l-90 -467h346l90 467h11l-92 -467h253v-8h-256l-73 -379h264v-10h-266l-90 -463h-11l93 463h-347l-92 -463h-8l90 463h-293zM317 473h347l73 379h-346z" />
<glyph unicode="$" horiz-adv-x="591" d="M10 387v6h10v-6q0 -141 56 -209q51 -66 157 -69v542l-13 8.5t-15 8.5q-27 12 -60.5 31.5t-63.5 50t-50.5 75.5t-20.5 109v4v4q2 129 61.5 206t161.5 79v100h11v-100q223 -4 223 -289v-4h-10v4q0 139 -56 211q-55 68 -157 68v-560q6 -4 12 -7l14 -7l58 -30 q33 -17 62.5 -46.5t51 -71.5t25.5 -102v-12v-14q-6 -123 -65.5 -194t-157.5 -73v-100h-11v100q-223 4 -223 287zM20 938q0 -63 19.5 -107.5t48.5 -74t61.5 -49t59.5 -31.5q6 -4 13 -6t11 -6v553q-98 -2 -155.5 -77t-57.5 -202zM244 109q96 4 153.5 75.5t59.5 194.5 q0 61 -20.5 104t-49.5 72t-61.5 48.5t-59.5 31.5q-16 8 -22 12v-538z" />
<glyph unicode="%" horiz-adv-x="923" d="M53 895v170v6v4q2 59 35 106.5t100 49.5h7h4q72 -2 103.5 -51.5t31.5 -108.5v-176q0 -59 -32 -108.5t-103 -53.5h-4h-7q-70 4 -102.5 53.5t-32.5 108.5zM63 895q0 -57 32 -104.5t99.5 -47.5t99.5 47.5t32 104.5v176q0 55 -32 102.5t-99.5 47.5t-99.5 -47.5t-32 -102.5v-6 v-170zM199 0l487 1327h10l-487 -1327h-10zM555 252v172v4v6q2 57 34 104.5t101 49.5v2h4h6v-2q70 -2 103 -51.5t33 -108.5v-176q0 -59 -33 -108.5t-103 -51.5h-6h-4q-72 2 -103.5 51.5t-31.5 108.5zM565 252q0 -55 31 -102.5t98.5 -47.5t99 47.5t31.5 102.5v176 q0 57 -31.5 104.5t-99 47.5t-98.5 -47.5t-31 -104.5v-4v-172z" />
<glyph unicode="&#x26;" horiz-adv-x="778" d="M10 313q0 63 15.5 110.5t41 85.5t59.5 69.5t71 62.5l45 38q23 19 45 42q-8 10 -31 46t-47.5 86t-44 107.5t-19.5 112.5q0 129 33 189q35 66 115 65q88 0 121 -78q16 -39 20 -87t4 -89q0 -94 -23.5 -160.5t-47.5 -107.5q-23 -37 -42.5 -58.5t-25.5 -27.5l307 -526q2 4 2 6 t2 6q39 86 49.5 185t10.5 173v6h10v-6q0 -76 -10.5 -175t-48.5 -187q-4 -4 -5.5 -9.5t-5.5 -9.5l107 -182h-10l-101 174q-94 -172 -309 -174h-4h-6q-127 4 -203 92q-35 41 -54.5 98t-19.5 123zM20 313q0 -135 75 -219t198 -84q215 0 307 172l-309 531q-23 -23 -44.5 -42.5 t-43.5 -37.5q-37 -31 -70 -61.5t-58.5 -67.5t-40 -83.5t-14.5 -107.5zM156 1073q0 -53 18.5 -109.5t42 -105.5t45.5 -84l31 -47q8 8 30.5 33.5t45 68.5t41 103.5t18.5 140.5q0 47 -4 91t-18.5 78t-41 54.5t-71.5 20.5q-72 0 -104.5 -57.5t-32.5 -186.5z" />
<glyph unicode="'" horiz-adv-x="100" d="M2 1184v127h10v-127h-10z" />
<glyph unicode="(" horiz-adv-x="235" d="M-2 662q0 211 29.5 339.5t60.5 196.5q35 74 63 100l29 29l4 2l6 -8l-4 -2q-14 -10 -28 -27l-29 -40q-16 -24 -33 -58q-31 -68 -59.5 -196t-28.5 -336q0 -211 29 -337t59 -192q16 -35 32.5 -58.5t29.5 -37.5q14 -16 28 -27l4 -2l-6 -8l-4 2q-2 2 -29.5 27.5t-62.5 97.5 q-31 66 -60.5 194t-29.5 341z" />
<glyph unicode=")" horiz-adv-x="206" d="M8 1321l4 8l4 -2l30 -29q28 -27 63 -100q33 -68 62.5 -197t29.5 -339q0 -106 -8.5 -190.5t-21.5 -150t-29.5 -113.5t-32.5 -81q-35 -72 -63 -97.5t-30 -27.5l-4 -2l-4 8l4 2q14 10 29 27q12 14 27.5 37.5t31.5 58.5q31 66 60.5 192t29.5 337q0 209 -29.5 336.5 t-60.5 195.5q-16 35 -31.5 58.5t-27.5 39.5q-14 16 -29 27z" />
<glyph unicode="*" horiz-adv-x="456" d="M10 1155l4 10l209 -78v224h10v-224l209 78l4 -10l-208 -78l155 -176l-8 -6l-156 178l-157 -178l-9 6l158 176z" />
<glyph unicode="+" horiz-adv-x="655" d="M2 657v11h299v299h10v-299h299v-11h-299v-299h-10v299h-299z" />
<glyph unicode="," horiz-adv-x="108" d="M14 33h11v-115h-11v115z" />
<glyph unicode="-" horiz-adv-x="477" d="M20 657v11h447v-11h-447z" />
<glyph unicode="." horiz-adv-x="124" d="M16 0v33h11v-33h-11z" />
<glyph unicode="/" horiz-adv-x="612" d="M12 0l488 1325h10l-487 -1325h-11z" />
<glyph unicode="0" horiz-adv-x="630" d="M6 344v641q0 340 227 340q115 0 173 -88q57 -90 57 -252v-641q0 -170 -58.5 -257t-171 -87t-170 87t-57.5 257zM16 344q0 -168 56 -250q55 -84 161 -84q109 0 164 84q55 82 56 250v641q0 164 -55.5 248t-164.5 84q-106 0 -161.5 -84t-55.5 -248v-641z" />
<glyph unicode="1" horiz-adv-x="364" d="M4 1085l201 240h6v-1325h-10v1309l-189 -230z" />
<glyph unicode="2" horiz-adv-x="595" d="M18 1010v6q0 309 230 309q98 0 159.5 -77t67.5 -210v-14v-14q-2 -59 -14 -105.5t-32.5 -86.5t-46.5 -77l-54 -75l-38 -53l-40 -56l-92 -142q-41 -65 -70 -128.5t-44 -130t-15 -146.5h219h223h4v-10h-4h-223h-230v4q0 82 16.5 151.5t46.5 135t71 131.5l92 141l39 55l36 54 q31 39 56.5 75.5t45 78.5t32 89.5t12.5 108.5q-2 135 -60.5 214t-156.5 79q-113 0 -164 -74q-55 -78 -55 -227v-6h-11z" />
<glyph unicode="3" horiz-adv-x="563" d="M8 338v4h10v-4q0 -164 55.5 -246t164.5 -82q102 0 161 96q27 41 41.5 98.5t14.5 123.5q-2 94 -33 153.5t-64 93.5q-39 37 -85 59.5t-91 22.5h-4h-90v9h94q35 0 82 18t88 58t71 102.5t32 150.5q0 133 -56 224q-59 98 -161 98q-109 0 -164.5 -84t-55.5 -248v-4h-10v4 q0 340 230 340q109 0 170 -102q27 -41 40 -95.5t17 -117.5v-15v-14q-4 -90 -36 -148.5t-64 -91.5q-29 -31 -66 -51t-74 -28q37 -8 74 -29t66 -51q33 -33 64.5 -90.5t35.5 -149.5v-14v-15q-4 -61 -17.5 -116.5t-39.5 -96.5q-63 -100 -170 -100q-115 0 -172 86q-58 90 -58 252 z" />
<glyph unicode="4" horiz-adv-x="638" d="M8 422v10l494 893h8v-1325h-10v422h-492zM18 430h482v873z" />
<glyph unicode="5" horiz-adv-x="587" d="M14 332v6h11v-6q0 -160 55 -242q55 -80 162 -80q104 0 164 94q55 90 55 228v147q0 160 -55.5 238t-163.5 78q-98 0 -157.5 -85t-59.5 -231v-4v-4h-11v4v4v846h11h446v-8h-446v-731q20 102 76.5 160.5t140.5 58.5q229 0 229 -326v-147q0 -68 -14.5 -128.5t-42.5 -103.5 q-63 -100 -172 -100q-113 0 -170 86q-58 82 -58 246z" />
<glyph unicode="6" horiz-adv-x="571" d="M10 291v198v3v411q0 207 56.5 313.5t166.5 108.5h5h6q106 0 166 -82q57 -82 57 -223v-4h-10v4q0 143 -56.5 220t-163 77t-162 -104.5t-55.5 -309.5v-305q20 106 77 166.5t141 60.5q229 0 229 -336v-151q0 -154 -62.5 -246t-166.5 -92q-111 0 -170 78q-58 76 -58 213z M20 291q0 -133 55.5 -207t162.5 -74q100 0 159.5 88t59.5 240v151q0 166 -56 246q-57 82 -163 82q-98 0 -158 -89t-60 -236v-201z" />
<glyph unicode="7" horiz-adv-x="720" d="M27 1315v10h637v-8l-551 -1319h-11l549 1317h-624z" />
<glyph unicode="8" horiz-adv-x="620" d="M8 977v4v12v11v4q6 154 60 231q61 86 186 86h4h4q125 0 187 -86q53 -78 59 -231v-4v-11v-12v-4q-6 -156 -59 -229q-45 -68 -134 -84q86 -16 134 -84q53 -78 59 -230v-6v-10v-12v-5q-6 -156 -59 -229q-61 -88 -187 -88h-4h-4q-125 0 -186 88q-53 74 -60 229v5v12v10v6 q6 152 60 230q47 68 133 84q-88 16 -133 84q-54 73 -60 229zM18 334q2 -166 59.5 -245t180.5 -79t180.5 79t59.5 245q-2 166 -59.5 245.5t-180.5 79.5t-180.5 -79.5t-59.5 -245.5zM18 993q2 -166 59.5 -245.5t180.5 -79.5t180.5 79.5t59.5 245.5q-2 324 -240 324t-240 -324z " />
<glyph unicode="9" horiz-adv-x="595" d="M6 307v4h10v-4q0 -145 56.5 -221t160.5 -76q109 0 164.5 103.5t55.5 308.5v305q-20 -106 -77 -166.5t-143 -60.5q-227 0 -227 338v151q0 154 61.5 245t165.5 91q115 0 173 -78q57 -80 57 -213v-196v-4v-412q0 -205 -56.5 -312.5t-166.5 -109.5h-7h-4q-109 4 -166 82 t-57 225zM16 838q0 -166 56 -248q51 -80 161 -80q100 0 160 88t60 236v200q0 133 -56 207q-57 76 -164 76q-98 0 -157.5 -89t-59.5 -239v-151z" />
<glyph unicode=":" d="M16 334v100h11v-100h-11zM16 897v102h11v-102h-11z" />
<glyph unicode=";" horiz-adv-x="141" d="M12 260v174h11v-174h-11zM12 897v102h11v-102h-11z" />
<glyph unicode="&#x3c;" />
<glyph unicode="=" horiz-adv-x="579" d="M20 432v10h447v-10h-447zM20 842v10h447v-10h-447z" />
<glyph unicode="&#x3e;" />
<glyph unicode="?" horiz-adv-x="530" d="M16 995v4q0 160 57.5 243t170.5 83q111 0 172 -98q51 -82 55 -205v-6q0 -4 1 -5t1 -3t-1 -3t-1 -4v-6q-4 -70 -26.5 -128t-53.5 -104t-63.5 -82t-55.5 -58l-24 -25q-23 -25 -34 -64.5t-15 -87t-4 -97.5v-95v-45v-6h-11v6v45v96q0 51 5.5 99.5t17.5 89.5t35 65l10 10 q6 6 12 15l57.5 60.5t63.5 82.5t53.5 106.5t24.5 129.5q-2 63 -15.5 118.5t-39.5 96.5q-59 94 -164 94q-106 0 -161.5 -80t-55.5 -238v-4h-11zM184 0v33h11v-33h-11z" />
<glyph unicode="@" horiz-adv-x="1234" d="M14 719q18 111 64.5 206t118.5 167q66 66 145.5 110.5t171.5 63.5q66 13 129 13q101 0 195 -35q152 -56 237 -189q29 -47 48.5 -107.5t23.5 -132.5q1 -23 1 -45q0 -45 -5 -88q-8 -66 -31 -119q-20 -47 -61 -89t-101 -71q-53 -27 -104 -35q-24 -4 -46 -5q-24 0 -44 6 q-63 16 -63 75q0 10 1 21l7 47l12 74q-18 -57 -47 -86t-67 -35t-89 -6q-98 0 -141 49q-37 38 -37 116q0 26 4 56q14 117 67.5 176t157.5 59q23 0 67 -4t77 -26q39 -27 45 -76q4 20 7 38l5 30q2 14 4 26v6l10 -2v-4q0 -2 -5 -29.5t-12 -71.5l-17 -96q-9 -52 -16 -101l-13 -87 q-6 -39 -8 -55q-2 -11 -2 -20q0 -28 14 -42q18 -18 41 -24q10 -2 19 -3t22 -1q37 0 83 13t89 39t77.5 61.5t53.5 80.5q23 55 31 121q5 44 5 87q0 22 -1 43q-4 65 -21.5 125.5t-48.5 107.5q-41 63 -101.5 110t-132 74t-152.5 33q-20 2 -41 1q-61 0 -124 -14 q-76 -16 -154.5 -55t-147.5 -104.5t-119 -159.5t-70 -219q-10 -66 -11 -126q0 -117 39 -214q59 -147 205 -236q88 -55 198 -79q90 -19 181 -19q20 0 40 1q112 5 220.5 40t194.5 98l2 4l6 -8l-4 -4q-86 -61 -192.5 -98t-225.5 -43h-43q-106 0 -204.5 25.5t-176.5 74.5 q-147 90 -209 241q-41 100 -41 220q0 60 10 125zM346 680q-4 -29 -3 -54q0 -75 32 -112q39 -45 135 -45q49 0 85 5t62.5 31.5t45 80t34.5 149.5q4 29 5 52q0 29 -8 45q-13 30 -36 45q-20 14 -56 22t-81 8q-96 0 -148.5 -55t-66.5 -172z" />
<glyph unicode="A" horiz-adv-x="761" d="M12 0l307 1325h9l307 -1325h-10l-99 420h-407l-96 -420h-11zM123 430h401l-200 868z" />
<glyph unicode="B" horiz-adv-x="595" d="M16 0v8v651v9v657h199q141 0 213 -86q29 -41 45 -96.5t21 -132.5v-6v-11v-12v-4q-6 -150 -66 -232q-55 -68 -149 -81q92 -14 149 -84q59 -82 66 -232v-4v-12v-10v-7q-4 -78 -20.5 -133t-45.5 -96q-72 -86 -213 -86h-190h-9zM25 8h190q266 0 268 324q-2 168 -67.5 247.5 t-200.5 79.5h-178h-12v-651zM25 668h12h178q135 0 200.5 79.5t67.5 245.5q-2 324 -268 324h-190v-649z" />
<glyph unicode="C" horiz-adv-x="663" d="M10 340v643v4v6q2 328 262 332h4h7q260 -4 260 -338v-4h-11v4q0 166 -63 248q-66 82 -192.5 82t-190.5 -82q-66 -84 -66 -248v-4v-643q0 -332 256 -332t256 332v4h11v-4q0 -336 -260 -340h-7h-4q-262 4 -262 340z" />
<glyph unicode="D" horiz-adv-x="620" d="M8 0v1325h209q147 0 221 -88q70 -84 70 -256v-637q0 -172 -70 -256q-74 -88 -221 -88h-209zM16 8h201q281 0 281 336v637q0 336 -281 336h-201v-1309z" />
<glyph unicode="E" horiz-adv-x="530" d="M8 0v659v9v657h441v-8h-433v-649h433v-9h-433v-651h433v-8h-441z" />
<glyph unicode="F" horiz-adv-x="522" d="M12 0v659v9v657h441v-8h-433v-649h433v-9h-433v-659h-8z" />
<glyph unicode="G" horiz-adv-x="663" d="M12 338v647v4v6q0 164 66 248q68 82 201 82t200 -82q68 -86 68 -254v-4h-10v4q0 164 -66 248q-63 80 -192 80q-125 0 -193 -80q-66 -84 -66 -248v-4v-647q0 -166 66 -248t193 -82t192.5 82t65.5 248v207h-299v10h309v-217q0 -338 -268 -338q-267 0 -267 338z" />
<glyph unicode="H" horiz-adv-x="655" d="M10 0v657v11v657h8v-657h476v657h10v-657v-11v-657h-10v657h-476v-657h-8z" />
<glyph unicode="I" horiz-adv-x="206" d="M49 0v1325h10v-1325h-10z" />
<glyph unicode="J" horiz-adv-x="630" d="M12 309v6h11v-6q0 -150 59 -227q61 -74 176 -74q117 0 178 74q59 78 60 227v1016h10v-1016q0 -154 -62 -233q-61 -76 -186 -76q-123 0 -184 76q-62 79 -62 233z" />
<glyph unicode="K" horiz-adv-x="647" d="M10 2v1325h8v-829l156 227l2 2l410 600h10l-410 -604l412 -723h-10l-408 715l-162 -234v-479h-8z" />
<glyph unicode="L" horiz-adv-x="546" d="M12 0v1327h8v-1317h465v-10h-473z" />
<glyph unicode="M" horiz-adv-x="919" d="M10 2v1325h8l375 -1304l375 1304h8v-1325h-10v1286l-369 -1288h-8l-369 1288v-1286h-10z" />
<glyph unicode="N" horiz-adv-x="704" d="M10 2v1325h8l523 -1296v1296h10v-1327h-8l-523 1298v-1296h-10z" />
<glyph unicode="O" horiz-adv-x="679" d="M6 338v651q0 336 268 336q266 0 267 -336v-651q0 -338 -267 -338q-268 0 -268 338zM16 338q0 -164 66 -248q66 -82 192.5 -82t190.5 82q66 84 65 248v651q0 164 -65 246q-63 82 -190.5 82t-193 -82t-65.5 -246v-651z" />
<glyph unicode="P" horiz-adv-x="638" d="M12 0v1325h221q150 0 224 -86q66 -78 67 -229v-6q0 -4 1 -6.5t1 -4.5t-1 -4t-1 -6v-6q-2 -152 -67 -232q-74 -88 -224 -88h-213v-657h-8zM20 668h213q141 0 210 79.5t73 245.5q-4 166 -72.5 245t-210.5 79h-213v-649z" />
<glyph unicode="Q" horiz-adv-x="696" d="M12 346v647q0 170 68 250q63 82 198.5 82t198.5 -82q68 -80 68 -250v-647q0 -188 -84 -276l100 -123h-12l-96 114q-66 -61 -174 -61q-267 0 -267 346zM23 346q0 -168 63 -252q63 -86 193 -86q104 0 170 62l-93 110h13l86 -104q4 4 7 9t7 9q66 88 66 252v647 q0 324 -256 324t-256 -324v-647z" />
<glyph unicode="R" horiz-adv-x="679" d="M10 0v647v8v670h221q143 0 215 -78t76 -243v-7v-10v-10v-6q-2 -156 -67 -236q-59 -70 -158 -84q109 -18 168 -93t61 -198v-6v-4v-350h-10v350v4q0 137 -74.5 215t-210.5 78h-4h-207v-647h-10zM20 655h207h4q143 0 212 81t71 253q-2 162 -68 242q-72 86 -215 86h-211v-662 z" />
<glyph unicode="S" horiz-adv-x="655" d="M10 981v6v4q2 154 74 244t195 90q268 0 268 -338v-6h-10v6q0 164 -66 248q-66 82 -192 82q-119 0 -190 -90t-71 -240q0 -82 28 -137t66 -92t79.5 -59.5t72.5 -34.5l29 -13q25 -10 65.5 -30.5t80.5 -56.5t71 -90t35 -132v-6v-6q0 -2 2 -2q0 -2 -1 -4t-1 -5v-6 q-4 -131 -66 -215q-72 -98 -200 -98q-135 0 -201 84q-68 82 -68 252v6h8v-6q0 -164 66 -246t195 -82q117 0 185 86t73 232q-2 80 -31 135t-69 92t-81 57.5t-65 30.5l-31 14q-31 12 -73 34t-81 61q-96 90 -96 231z" />
<glyph unicode="T" horiz-adv-x="737" d="M10 1317v8h332h8h332v-8h-332v-1317h-8v1317h-332z" />
<glyph unicode="U" horiz-adv-x="688" d="M10 311v1014h8v-1014q0 -154 62 -227q59 -76 176 -76t176 76q59 72 60 227v1014h10v-1014q0 -309 -242 -311h-4h-4q-242 2 -242 311z" />
<glyph unicode="V" horiz-adv-x="778" d="M14 1327h11l325 -1300l326 1300h10l-332 -1327h-6z" />
<glyph unicode="W" horiz-adv-x="1308" d="M12 1327h11l284 -1298l287 1298h8l287 -1298l287 1298h10l-293 -1327h-8l-287 1300l-287 -1300h-6z" />
<glyph unicode="X" horiz-adv-x="745" d="M16 0l314 664l-314 661h11l309 -651l305 651h10l-311 -661l313 -664h-10l-307 651l-307 -651h-13z" />
<glyph unicode="Y" horiz-adv-x="761" d="M-27 1325h13l358 -653l361 653h12l-367 -663v-662h-10v662z" />
<glyph unicode="Z" horiz-adv-x="770" d="M14 1317v8h625v-10l-612 -1307h614v-8h-625v10l613 1307h-615z" />
<glyph unicode="[" />
<glyph unicode="\" horiz-adv-x="612" d="M20 1325h11l487 -1325h-10z" />
<glyph unicode="]" />
<glyph unicode="^" />
<glyph unicode="_" horiz-adv-x="837" d="M14 0h772v-10h-772v10z" />
<glyph unicode="a" horiz-adv-x="761" d="M12 0l307 1325h9l307 -1325h-10l-99 420h-407l-96 -420h-11zM123 430h401l-200 868z" />
<glyph unicode="b" horiz-adv-x="595" d="M16 0v8v651v9v657h199q141 0 213 -86q29 -41 45 -96.5t21 -132.5v-6v-11v-12v-4q-6 -150 -66 -232q-55 -68 -149 -81q92 -14 149 -84q59 -82 66 -232v-4v-12v-10v-7q-4 -78 -20.5 -133t-45.5 -96q-72 -86 -213 -86h-190h-9zM25 8h190q266 0 268 324q-2 168 -67.5 247.5 t-200.5 79.5h-178h-12v-651zM25 668h12h178q135 0 200.5 79.5t67.5 245.5q-2 324 -268 324h-190v-649z" />
<glyph unicode="c" horiz-adv-x="663" d="M10 340v643v4v6q2 328 262 332h4h7q260 -4 260 -338v-4h-11v4q0 166 -63 248q-66 82 -192.5 82t-190.5 -82q-66 -84 -66 -248v-4v-643q0 -332 256 -332t256 332v4h11v-4q0 -336 -260 -340h-7h-4q-262 4 -262 340z" />
<glyph unicode="d" horiz-adv-x="620" d="M8 0v1325h209q147 0 221 -88q70 -84 70 -256v-637q0 -172 -70 -256q-74 -88 -221 -88h-209zM16 8h201q281 0 281 336v637q0 336 -281 336h-201v-1309z" />
<glyph unicode="e" horiz-adv-x="530" d="M8 0v659v9v657h441v-8h-433v-649h433v-9h-433v-651h433v-8h-441z" />
<glyph unicode="f" horiz-adv-x="522" d="M12 0v659v9v657h441v-8h-433v-649h433v-9h-433v-659h-8z" />
<glyph unicode="g" horiz-adv-x="663" d="M12 338v647v4v6q0 164 66 248q68 82 201 82t200 -82q68 -86 68 -254v-4h-10v4q0 164 -66 248q-63 80 -192 80q-125 0 -193 -80q-66 -84 -66 -248v-4v-647q0 -166 66 -248t193 -82t192.5 82t65.5 248v207h-299v10h309v-217q0 -338 -268 -338q-267 0 -267 338z" />
<glyph unicode="h" horiz-adv-x="655" d="M10 0v657v11v657h8v-657h476v657h10v-657v-11v-657h-10v657h-476v-657h-8z" />
<glyph unicode="i" horiz-adv-x="206" d="M49 0v1325h10v-1325h-10z" />
<glyph unicode="j" horiz-adv-x="630" d="M12 309v6h11v-6q0 -150 59 -227q61 -74 176 -74q117 0 178 74q59 78 60 227v1016h10v-1016q0 -154 -62 -233q-61 -76 -186 -76q-123 0 -184 76q-62 79 -62 233z" />
<glyph unicode="k" horiz-adv-x="647" d="M10 2v1325h8v-829l156 227l2 2l410 600h10l-410 -604l412 -723h-10l-408 715l-162 -234v-479h-8z" />
<glyph unicode="l" horiz-adv-x="546" d="M12 0v1327h8v-1317h465v-10h-473z" />
<glyph unicode="m" horiz-adv-x="919" d="M10 2v1325h8l375 -1304l375 1304h8v-1325h-10v1286l-369 -1288h-8l-369 1288v-1286h-10z" />
<glyph unicode="n" horiz-adv-x="704" d="M10 2v1325h8l523 -1296v1296h10v-1327h-8l-523 1298v-1296h-10z" />
<glyph unicode="o" horiz-adv-x="679" d="M6 338v651q0 336 268 336q266 0 267 -336v-651q0 -338 -267 -338q-268 0 -268 338zM16 338q0 -164 66 -248q66 -82 192.5 -82t190.5 82q66 84 65 248v651q0 164 -65 246q-63 82 -190.5 82t-193 -82t-65.5 -246v-651z" />
<glyph unicode="p" horiz-adv-x="638" d="M12 0v1325h221q150 0 224 -86q66 -78 67 -229v-6q0 -4 1 -6.5t1 -4.5t-1 -4t-1 -6v-6q-2 -152 -67 -232q-74 -88 -224 -88h-213v-657h-8zM20 668h213q141 0 210 79.5t73 245.5q-4 166 -72.5 245t-210.5 79h-213v-649z" />
<glyph unicode="q" horiz-adv-x="696" d="M12 346v647q0 170 68 250q63 82 198.5 82t198.5 -82q68 -80 68 -250v-647q0 -188 -84 -276l100 -123h-12l-96 114q-66 -61 -174 -61q-267 0 -267 346zM23 346q0 -168 63 -252q63 -86 193 -86q104 0 170 62l-93 110h13l86 -104q4 4 7 9t7 9q66 88 66 252v647 q0 324 -256 324t-256 -324v-647z" />
<glyph unicode="r" horiz-adv-x="679" d="M10 0v647v8v670h221q143 0 215 -78t76 -243v-7v-10v-10v-6q-2 -156 -67 -236q-59 -70 -158 -84q109 -18 168 -93t61 -198v-6v-4v-350h-10v350v4q0 137 -74.5 215t-210.5 78h-4h-207v-647h-10zM20 655h207h4q143 0 212 81t71 253q-2 162 -68 242q-72 86 -215 86h-211v-662 z" />
<glyph unicode="s" horiz-adv-x="655" d="M10 981v6v4q2 154 74 244t195 90q268 0 268 -338v-6h-10v6q0 164 -66 248q-66 82 -192 82q-119 0 -190 -90t-71 -240q0 -82 28 -137t66 -92t79.5 -59.5t72.5 -34.5l29 -13q25 -10 65.5 -30.5t80.5 -56.5t71 -90t35 -132v-6v-6q0 -2 2 -2q0 -2 -1 -4t-1 -5v-6 q-4 -131 -66 -215q-72 -98 -200 -98q-135 0 -201 84q-68 82 -68 252v6h8v-6q0 -164 66 -246t195 -82q117 0 185 86t73 232q-2 80 -31 135t-69 92t-81 57.5t-65 30.5l-31 14q-31 12 -73 34t-81 61q-96 90 -96 231z" />
<glyph unicode="t" horiz-adv-x="737" d="M10 1317v8h332h8h332v-8h-332v-1317h-8v1317h-332z" />
<glyph unicode="u" horiz-adv-x="688" d="M10 311v1014h8v-1014q0 -154 62 -227q59 -76 176 -76t176 76q59 72 60 227v1014h10v-1014q0 -309 -242 -311h-4h-4q-242 2 -242 311z" />
<glyph unicode="v" horiz-adv-x="778" d="M14 1327h11l325 -1300l326 1300h10l-332 -1327h-6z" />
<glyph unicode="w" horiz-adv-x="1308" d="M12 1327h11l284 -1298l287 1298h8l287 -1298l287 1298h10l-293 -1327h-8l-287 1300l-287 -1300h-6z" />
<glyph unicode="x" horiz-adv-x="745" d="M16 0l314 664l-314 661h11l309 -651l305 651h10l-311 -661l313 -664h-10l-307 651l-307 -651h-13z" />
<glyph unicode="y" horiz-adv-x="761" d="M-27 1325h13l358 -653l361 653h12l-367 -663v-662h-10v662z" />
<glyph unicode="z" horiz-adv-x="770" d="M14 1317v8h625v-10l-612 -1307h614v-8h-625v10l613 1307h-615z" />
<glyph unicode="{" />
<glyph unicode="|" horiz-adv-x="182" d="M27 0v1325h10v-1325h-10z" />
<glyph unicode="}" />
<glyph unicode="~" />
<glyph unicode="&#xa9;" />
<glyph unicode="&#xad;" horiz-adv-x="477" d="M20 657v11h447v-11h-447z" />
<glyph unicode="&#xae;" />
<glyph unicode="&#x2000;" horiz-adv-x="663" />
<glyph unicode="&#x2001;" horiz-adv-x="1327" />
<glyph unicode="&#x2002;" horiz-adv-x="663" />
<glyph unicode="&#x2003;" horiz-adv-x="1327" />
<glyph unicode="&#x2004;" horiz-adv-x="442" />
<glyph unicode="&#x2005;" horiz-adv-x="331" />
<glyph unicode="&#x2006;" horiz-adv-x="221" />
<glyph unicode="&#x2007;" horiz-adv-x="221" />
<glyph unicode="&#x2008;" horiz-adv-x="165" />
<glyph unicode="&#x2009;" horiz-adv-x="264" />
<glyph unicode="&#x200a;" horiz-adv-x="73" />
<glyph unicode="&#x2010;" horiz-adv-x="477" d="M20 657v11h447v-11h-447z" />
<glyph unicode="&#x2011;" horiz-adv-x="477" d="M20 657v11h447v-11h-447z" />
<glyph unicode="&#x2012;" horiz-adv-x="477" d="M20 657v11h447v-11h-447z" />
<glyph unicode="&#x2013;" horiz-adv-x="477" d="M20 657v11h447v-11h-447z" />
<glyph unicode="&#x2014;" horiz-adv-x="477" d="M20 657v11h447v-11h-447z" />
<glyph unicode="&#x2018;" horiz-adv-x="100" d="M2 1184v127h10v-127h-10z" />
<glyph unicode="&#x2019;" horiz-adv-x="100" d="M2 1184v127h10v-127h-10z" />
<glyph unicode="&#x201c;" horiz-adv-x="256" d="M2 1184v127h10v-127h-10zM125 1184v127h10v-127h-10z" />
<glyph unicode="&#x201d;" horiz-adv-x="256" d="M2 1184v127h10v-127h-10zM125 1184v127h10v-127h-10z" />
<glyph unicode="&#x2022;" />
<glyph unicode="&#x2026;" horiz-adv-x="374" d="M16 0v33h11v-33h-11zM141 0v33h11v-33h-11zM266 0v33h10v-33h-10z" />
<glyph unicode="&#x202f;" horiz-adv-x="264" />
<glyph unicode="&#x205f;" horiz-adv-x="331" />
<glyph unicode="&#xe000;" horiz-adv-x="1325" d="M0 1325h1325v-1325h-1325v1325z" />
</font>
</defs>
</svg>
