<?xml version="1.0" standalone="no"?>
<!DOCTYPE svg PUBLIC "-//W3C//DTD SVG 1.1//EN" "http://www.w3.org/Graphics/SVG/1.1/DTD/svg11.dtd" >
<svg xmlns="http://www.w3.org/2000/svg">
<metadata>
This is a custom SVG webfont generated by Font Squirrel.
Copyright   : Copyright c 2011 by Tyler Finck All rights reserved
Designer    : Tyler Finck
Foundry     : Tyler Finck
Foundry URL : httpwwwsurslycom
</metadata>
<defs>
<font id="OstrichSansRoundedMedium" horiz-adv-x="1705" >
<font-face units-per-em="2048" ascent="1536" descent="-512" />
<missing-glyph horiz-adv-x="430" />
<glyph unicode=" "  horiz-adv-x="430" />
<glyph unicode="&#x09;" horiz-adv-x="430" />
<glyph unicode="&#xa0;" horiz-adv-x="430" />
<glyph unicode="!" horiz-adv-x="190" d="M20 33v24q0 12 9.5 21.5t24 9.5t23.5 -9t9 -22v-24q0 -33 -33 -33t-33 33zM20 233v1117q0 12 9.5 21t24 9t23.5 -9t9 -21v-1117q0 -33 -33 -33t-33 33z" />
<glyph unicode="&#x22;" horiz-adv-x="331" d="M23 1233v117q0 14 9 23t21 9q33 0 33 -32v-117q0 -12 -9 -21.5t-24 -9.5q-12 0 -21 9.5t-9 21.5zM143 1233v117q0 33 33 32.5t33 -32.5v-117q0 -12 -9.5 -21.5t-23.5 -9.5t-23.5 9.5t-9.5 21.5z" />
<glyph unicode="#" horiz-adv-x="1110" d="M-41 496q0 14 9 23t22 9h268l64 324h-267q-14 0 -23 9t-9 22q0 33 32 32h279l86 441q4 12 14 20q7 5 15 6q4 0 8 -2q14 -4 22 -14t4 -23l-84 -428h289l86 441q4 12 14 20q7 5 16 6q4 0 9 -2q12 -4 20.5 -14t4.5 -23l-84 -428h215q33 0 32 -32q0 -12 -9 -21.5t-23 -9.5 h-228l-63 -324h227q12 0 21.5 -9t9.5 -23q0 -12 -9 -22.5t-22 -10.5h-239l-86 -436q-4 -27 -31 -27h-6q-31 6 -27 39l84 424h-289l-86 -436q-6 -27 -32 -27h-7q-12 4 -20 14.5t-4 24.5l84 424h-256q-12 0 -21.5 10.5t-9.5 22.5zM324 528h288l64 324h-289z" />
<glyph unicode="$" horiz-adv-x="655" d="M27 965q0 133 63 219q59 84 160 94v72q0 12 9 21t23.5 9t23.5 -9t9 -21v-70q41 -4 81 -20.5t72 -52.5t51.5 -95t19.5 -147q0 -33 -33 -33t-33 33q0 74 -14.5 121t-37 74.5t-50 38.5t-56.5 15v-514q4 -2 7.5 -3t7.5 -3q27 -12 63.5 -32.5t68.5 -53.5t54.5 -82t22.5 -120 q0 -133 -64 -216q-59 -78 -160 -90v-67q0 -33 -32.5 -33t-32.5 33v67q-41 4 -81 20.5t-71.5 51.5t-51 93.5t-19.5 148.5q0 33 32.5 32.5t32.5 -32.5q0 -74 14.5 -121t37 -75t50 -40t56.5 -14v498q-4 2 -7 4t-7 4l-63 35q-36 20 -68.5 54t-55 84t-22.5 122zM92 965 q0 -53 14.5 -91t38 -64t51 -44t54.5 -31v479q-43 -6 -73 -30.5t-49 -59t-27.5 -75.5t-8.5 -84zM315 166q76 10 117 72.5t41 167.5q0 53 -15.5 89.5t-38 62.5t-51 42l-53.5 29v-463z" />
<glyph unicode="%" horiz-adv-x="919" d="M0 922v176q0 84 47 136t121 52t121 -52t47 -136v-176q0 -84 -47 -136.5t-121 -52.5t-121 52.5t-47 136.5zM63 922q0 -43 24 -83t81 -40t79.5 40t22.5 83v176q0 43 -22.5 83t-79.5 40t-81 -40t-24 -83v-176zM95 20q-2 6 -2 12q0 7 3 13l590 1317q10 19 28 19q7 0 15 -3 q27 -14 16 -43l-589 -1317q-10 -18 -31 -18q-8 0 -12 2q-13 6 -18 18zM502 281v176q0 84 46 135t122 51q74 0 120 -51t46 -135v-176q0 -84 -46.5 -136.5t-119.5 -52.5q-76 0 -122 52.5t-46 136.5zM565 281q0 -43 22.5 -84t82.5 -41q57 0 79.5 41t22.5 84v176q0 20 -5 41.5 t-17.5 40t-32 30t-48 11.5t-49 -11.5t-33 -30t-17.5 -40t-5 -41.5v-176z" />
<glyph unicode="&#x26;" horiz-adv-x="878" d="M-2 340q0 68 16.5 119t44 92t63.5 74l73 63l35 32l36 32q-14 20 -36.5 59t-43 86t-36 99.5t-15.5 103.5q0 137 35 200q43 80 137 80q106 0 148 -94q18 -41 22 -92t4 -94q0 -74 -14 -133.5t-35.5 -104.5t-44 -74.5t-39.5 -46.5l270 -460q27 78 34 160.5t7 148.5 q0 14 9.5 23.5t21.5 9.5q33 0 33 -33q0 -78 -10.5 -180.5t-53.5 -194.5q0 -2 -2 -4l97 -162q4 -8 4 -17q0 -4 -1 -8q-3 -13 -16 -20q-8 -4 -16 -4q-16 0 -27 16l-77 131q-104 -147 -314 -147q-139 0 -227 100q-82 95 -82 240zM63 340q0 -51 14.5 -101.5t44.5 -89t76 -62.5 t109 -24q193 0 277 146l-283 485l-32 -27l-31 -28l-69 -59q-32 -29 -55.5 -63t-37 -77t-13.5 -100zM199 1100q0 -41 12 -85t30.5 -85t38 -76t33.5 -57q8 10 18.5 24.5t20.5 30.5q66 109 66 248q0 68 -8.5 109.5t-22.5 66t-34.5 33t-45.5 8.5q-20 0 -39.5 -7t-35 -30 t-24.5 -65.5t-9 -114.5z" />
<glyph unicode="'" horiz-adv-x="165" d="M23 1233v117q0 14 9 23t21 9q33 0 33 -32v-117q0 -12 -9 -21.5t-24 -9.5q-12 0 -21 9.5t-9 21.5z" />
<glyph unicode="(" horiz-adv-x="339" d="M18 690q0 209 30 341t66 209t66 107l33 31q6 4 14 6q3 1 7 1t8 -1q8 -2 14 -12q6 -12 6 -21q0 -6 -2 -12q-4 -8 -10 -14q-12 -10 -27 -27q-12 -14 -26.5 -36.5t-30.5 -57.5q-29 -66 -56.5 -188.5t-27.5 -325.5t27.5 -324.5t56.5 -185.5q31 -66 55 -94q12 -16 27 -25 q8 -4 12 -12q4 -7 4 -14q0 -9 -6 -19t-14 -13q-5 -2 -9 -2q-3 0 -6 1q-8 2 -14 6q-4 2 -36 31t-66 104q-95 195 -95 547z" />
<glyph unicode=")" horiz-adv-x="323" d="M23 49q4 8 12 12q10 8 24 25l26 37q15 23 32 57q14 31 28.5 77t26.5 108.5t20.5 142.5t8.5 182q0 203 -28 326t-56 188q-31 68 -56.5 94.5t-27.5 26.5h2q-6 6 -10 14q-4 6 -5.5 14.5t7.5 18.5q6 10 14 12q4 1 7.5 1t6.5 -1q8 -2 15 -6q2 -2 33.5 -31.5t66.5 -106.5 t64.5 -209t29.5 -341q0 -350 -92 -547q-37 -76 -68.5 -104.5t-35.5 -30.5q-8 -4 -17 -6q-3 -1 -6 -1q-12 0 -20 15q-7 9 -8 17q1 8 6 16z" />
<glyph unicode="*" horiz-adv-x="604" d="M25 1212q4 12 16 18.5t25 0.5l167 -62v179q0 33 33 32.5t33 -32.5v-179l168 62q12 6 24.5 0t16.5 -19q2 -5 2 -11q0 -7 -3 -13q-5 -12 -18 -17l-167 -63l127 -143q10 -10 8 -22.5t-13 -22.5q-8 -8 -20 -9q-14 0 -25 11l-133 151l-133 -151q-10 -10 -24.5 -10.5t-22.5 8.5 q-10 10 -11 22t9 23l127 143l-168 63q-12 4 -17 17q-3 7 -3 13t2 11z" />
<glyph unicode="+" horiz-adv-x="786" d="M12 686q0 33 33 33h266v266q0 33 33 33t33 -33v-266h266q33 0 33 -33t-33 -33h-266v-266q0 -33 -33 -33t-33 33v266h-266q-33 0 -33 33z" />
<glyph unicode="," horiz-adv-x="174" d="M23 -47v104q0 33 32.5 33t32.5 -33v-104q0 -33 -32.5 -33t-32.5 33z" />
<glyph unicode="-" horiz-adv-x="612" d="M14 692q0 33 33 33h436q12 0 21.5 -9t9.5 -23.5t-9 -24t-22 -9.5h-436q-33 0 -33 33z" />
<glyph unicode="." horiz-adv-x="165" d="M29 33v24q0 12 9 21.5t23.5 9.5t23.5 -9t9 -22v-24q0 -33 -32.5 -33t-32.5 33z" />
<glyph unicode="/" horiz-adv-x="786" d="M61 43l484 1317q8 21 27 21q7 0 16 -3q12 -4 17 -16q3 -7 3 -14q0 -5 -2 -11l-483 -1317q-10 -20 -31 -20q-8 0 -12 2q-12 4 -18 16q-3 7 -2 14q-1 6 1 11z" />
<glyph unicode="0" horiz-adv-x="729" d="M20 367v649q0 176 72 270q76 94 221 94q147 0 222 -94q74 -92 73 -270v-649q0 -115 -26.5 -185.5t-69.5 -111.5t-95 -55.5t-104 -14.5q-49 0 -101 14.5t-95 55.5t-70 111.5t-27 185.5zM84 367q0 -156 59 -232q55 -72 170 -72q113 0 172 72q57 72 58 232v649 q0 158 -57.5 229.5t-172.5 71.5q-117 0 -170 -72q-59 -76 -59 -229v-649z" />
<glyph unicode="1" horiz-adv-x="397" d="M10 1115q0 11 8 20l195 235q9 12 22 12q7 0 15 -4q20 -6 20 -28v-1317q0 -33 -32.5 -33t-32.5 33v1227l-137 -168q-10 -10 -22.5 -11.5t-22.5 6.5q-13 13 -13 28z" />
<glyph unicode="2" horiz-adv-x="655" d="M37 33q0 182 47 309q29 78 75 144.5t111 125.5q213 190 213 439q0 125 -51 194q-49 72 -139 72q-96 0 -141 -64q-51 -70 -52 -211q0 -14 -9 -23t-21 -9q-33 0 -33 32q0 164 61 250q68 88 195 88q125 0 192 -98q63 -88 64 -231q0 -276 -236 -488q-106 -96 -156.5 -215 t-54.5 -285h191h223q12 0 22.5 -9t10.5 -21q0 -14 -10.5 -23.5t-22.5 -9.5h-223h-223q-33 0 -33 33z" />
<glyph unicode="3" horiz-adv-x="620" d="M18 365q0 33 33 32q12 0 21.5 -9t9.5 -23q0 -154 51 -230q49 -72 141 -72q88 0 139.5 80t51.5 213q0 92 -29.5 147.5t-58.5 84.5q-41 39 -84 54t-72 15h-2h-59q-12 0 -21.5 9.5t-9.5 21.5q0 14 9 23.5t22 9.5h61q37 0 80 18.5t79 55t60.5 93t24.5 134.5q0 131 -51 215 q-49 80 -140 80q-193 0 -192 -303q0 -14 -9.5 -23.5t-21.5 -9.5q-33 0 -33 33q0 174 62 266q63 100 194 100q123 0 195 -110q61 -96 61 -248q0 -106 -35.5 -174t-72.5 -103q-41 -37 -78 -57q43 -23 78 -55q37 -35 72.5 -101.5t35.5 -175.5q0 -164 -69.5 -260t-186.5 -96 q-131 0 -194 98q-62 93 -62 267z" />
<glyph unicode="4" horiz-adv-x="663" d="M12 436q-5 8 -5 16.5t5 16.5l494 895q10 18 27 18q5 0 10 -2q25 -6 24 -30v-1317q0 -14 -10 -23.5t-22 -9.5q-33 0 -33 33v389h-461q-19 0 -29 14zM94 485h408v738z" />
<glyph unicode="5" horiz-adv-x="634" d="M23 504v846q0 12 9 21t23 9h447q12 0 22.5 -9t10.5 -21q0 -14 -10.5 -23.5t-22.5 -9.5h-416v-561q74 104 193 104q127 0 192 -94q63 -88 64 -260v-146q0 -72 -16.5 -136t-45.5 -111q-72 -113 -194 -113q-127 0 -195 96q-61 92 -61 264q0 33 32 33q12 0 21.5 -9t9.5 -24 q0 -152 51 -227q49 -70 142 -70q86 0 139 84q51 84 51 213v146q0 154 -51 223q-45 66 -139 66q-88 0 -142 -78q-51 -80 -51 -211v-2q0 -14 -9 -23.5t-22 -9.5q-32 0 -32 33z" />
<glyph unicode="6" horiz-adv-x="638" d="M16 324v194v2v408q0 147 27 237t65.5 137.5t84 62.5t79.5 15q127 0 193 -90q63 -82 63 -225q0 -12 -9 -21.5t-23 -9.5q-12 0 -22.5 9.5t-10.5 21.5q0 121 -49 186.5t-142 65.5q-61 0 -99 -40t-58.5 -99.5t-26.5 -127t-6 -122.5v-154q70 104 190 105q131 0 195 -95 q61 -92 61 -266v-149q0 -74 -16 -139.5t-45 -114.5q-68 -115 -195 -115q-121 0 -188.5 85t-67.5 239zM82 324q0 -37 6 -82t26.5 -85t58.5 -67t99 -27q90 0 140 87q27 41 39 97t12 122v149q0 156 -49 230q-47 68 -142 67q-90 0 -139 -82q-51 -80 -51 -213v-196z" />
<glyph unicode="7" horiz-adv-x="770" d="M8 1350q0 12 9.5 21t21.5 9h629q18 0 26 -14q6 -9 7 -19q0 -6 -3 -12l-548 -1315q-10 -20 -31 -20q-8 0 -13 2q-12 6 -17 18.5t1 24.5l531 1272h-582q-12 0 -21.5 9.5t-9.5 23.5z" />
<glyph unicode="8" horiz-adv-x="679" d="M20 360.5q0 178.5 66 268.5q29 41 70 61q-41 23 -70 62q-66 90 -66 268t66 268q68 92 213 92q143 0 211 -92q66 -86 65.5 -268t-65.5 -268q-29 -37 -68 -62q39 -23 68 -61q66 -86 65.5 -268.5t-65.5 -268.5q-68 -92 -211 -92q-145 0 -213 92q-66 90 -66 268.5zM86 360.5 q0 -159.5 51 -229.5q51 -68 162 -68t160 68q51 70 51 229.5t-51 231.5q-49 68 -160 67.5t-162 -67.5q-51 -72 -51 -231.5zM86 1020q0 -160 51 -229q51 -68 162 -68t160 68q51 70 51 229.5t-51 228.5q-49 68 -160 68t-162 -68q-51 -69 -51 -229z" />
<glyph unicode="9" horiz-adv-x="630" d="M12 334q0 33 33 33t33 -33q0 -133 49 -203q49 -68 141 -68q59 0 96 36t58.5 92.5t29 125t7.5 134.5v155q-33 -51 -81 -78.5t-110 -27.5q-127 0 -192 96q-63 90 -64 268v152q0 166 70 265t186 99q127 0 193 -88q63 -82 63 -231v-197v-2v-411q0 -211 -59 -326 q-66 -125 -197 -125q-127 0 -192 94q-64 88 -64 240zM78 864q0 -160 51 -231q45 -68 139 -68q90 0 140 82q25 39 38 94.5t13 120.5v199q0 127 -49 192q-47 63 -142 64q-88 0 -139 -82q-51 -84 -51 -219v-152z" />
<glyph unicode=":" horiz-adv-x="231" d="M27 367v90q0 33 32 32q12 0 21.5 -9t9.5 -23v-90q0 -14 -9 -23.5t-22 -9.5q-32 0 -32 33zM27 930v92q0 12 9 21.5t23 9.5q12 0 21.5 -9.5t9.5 -21.5v-92q0 -14 -9 -23.5t-22 -9.5q-32 0 -32 33z" />
<glyph unicode=";" horiz-adv-x="198" d="M25 293v164q0 33 32.5 32.5t32.5 -32.5v-164q0 -33 -32.5 -33t-32.5 33zM25 930v92q0 12 9 21.5t23.5 9.5t23.5 -9.5t9 -21.5v-92q0 -33 -32.5 -33t-32.5 33z" />
<glyph unicode="&#x3c;" />
<glyph unicode="=" horiz-adv-x="638" d="M14 487.5q0 32.5 33 32.5h436q12 0 21.5 -9t9.5 -23.5t-9 -23.5t-22 -9h-436q-33 0 -33 32.5zM14 897q0 33 33 33h436q12 0 21.5 -9.5t9.5 -23.5t-9 -23.5t-22 -9.5h-436q-33 0 -33 33z" />
<glyph unicode="&#x3e;" />
<glyph unicode="?" horiz-adv-x="620" d="M27 1028q0 166 63 258q63 96 193 96q125 0 194 -104q31 -47 46.5 -107.5t15.5 -132.5q0 -74 -17.5 -128t-42 -94t-52.5 -66.5t-50 -44.5l-18 -15q-7 -6 -13 -12q-41 -47 -63.5 -159.5t-22.5 -274.5v-6q0 -14 -9 -23.5t-22 -9.5q-33 0 -32 33v6q0 61 3 130.5t14 134 t31.5 121t53.5 91.5q12 16 37 33l45 41q25 23 45 56.5t33.5 78.5t13.5 108q0 61 -12 113.5t-37 89.5q-53 78 -141 78q-94 0 -140 -70q-51 -70 -51 -221q0 -12 -9 -21.5t-23.5 -9.5t-23.5 9.5t-9 21.5zM195 35v24q0 12 9 21.5t23.5 9.5t23.5 -9t9 -22v-24q0 -33 -32.5 -33 t-32.5 33z" />
<glyph unicode="@" horiz-adv-x="1325" d="M31 719q37 233 190 389q68 70 152 115t180 65q66 14 131 14q22 0 44 -2q87 -6 164 -34.5t141.5 -78.5t109.5 -120q33 -51 51 -115.5t24 -133.5q2 -25 1 -49q0 -44 -6 -89q-9 -70 -33 -131q-23 -55 -69 -99t-102.5 -74t-113.5 -40q-26 -5 -50 -5q-28 0 -52 7 q-45 10 -67 43q-17 25 -17 60q0 10 2 20q-33 -23 -71 -28t-85 -5q-113 0 -164 57q-42 50 -42 142q0 25 3 53q16 127 76 190q63 70 178 70q29 0 76 -6t82 -31q6 -4 16 -14q2 8 2 16q4 12 14.5 20.5t22.5 4.5q14 -2 22.5 -12.5t4.5 -24.5l-4 -29q-4 -29 -12 -71l-16 -96 l-17 -100l-15 -86q-6 -38 -8 -54q-1 -6 -1 -12q0 -35 36 -46q8 -2 15 -3t18 -1q33 0 74.5 12.5t81.5 36t73 56t49 73.5q20 53 30 115q6 39 6 80q0 22 -2 44q-5 62 -21.5 119.5t-45.5 100.5q-39 61 -95 105.5t-124.5 69t-145.5 29.5q-18 1 -37 1q-59 0 -120 -12 q-74 -16 -148.5 -53t-140 -100.5t-114.5 -154t-68 -208.5q-10 -61 -9 -117q0 -112 38 -207q57 -141 192 -225q86 -53 192 -76q83 -18 167 -18q23 0 46 2q108 6 211 38.5t187 94.5q10 8 23.5 6t21.5 -12q16 -27 -6 -48q-90 -63 -200.5 -101t-233.5 -44h-45q-111 0 -211 25.5 t-184 76.5q-154 96 -220 253q-44 104 -43 231q0 63 11 131zM418 672q-4 -29 -4 -53q0 -61 26 -91q29 -35 115 -34q51 0 80 5t47 23q23 23 40 74t32 139q5 29 5 49t-5 32q-10 24 -27 34q-16 12 -48 18t-73 6q-86 0 -131 -47q-45 -51 -57 -155z" />
<glyph unicode="A" horiz-adv-x="802" d="M27 39l305 1317q6 25 30 24q27 0 33 -24l305 -1317l2 -8q0 -8 -6 -16q-8 -11 -20 -15h-8q-25 0 -31 25l-92 397h-363l-92 -397q-4 -12 -15 -21q-8 -5 -16 -5q-4 0 -8 1q-14 4 -21 15q-5 7 -5 15q1 5 2 9zM197 485h333l-168 721z" />
<glyph unicode="B" horiz-adv-x="688" d="M29 33v1317q0 12 9 21t23 9h195q158 0 233 -90q72 -90 72 -270q0 -178 -72 -268q-16 -20 -34.5 -35t-40.5 -27q45 -23 75 -59q72 -90 72 -270.5t-72 -270.5q-76 -90 -233 -90h-195q-32 0 -32 33zM94 63h162q129 0 184.5 69t55.5 228.5t-58 229.5q-55 70 -182 69h-162 v-596zM94 723h162q127 0 182 70q57 70 58 227q0 160 -55.5 228.5t-184.5 68.5h-162v-594z" />
<glyph unicode="C" horiz-adv-x="704" d="M20 367v649q0 113 27 184.5t70 111.5t95 54t101 14q51 0 103.5 -14t95.5 -54t69.5 -112t26.5 -184q0 -33 -32.5 -33t-32.5 33q0 154 -60 229q-53 72 -170 72q-113 0 -170 -72q-59 -76 -59 -229v-649q0 -154 59 -232q59 -72 170 -72q115 0 170 72q59 78 60 232 q0 33 32.5 32.5t32.5 -32.5q0 -115 -26.5 -185.5t-69.5 -111.5t-95 -55.5t-104 -14.5q-49 0 -101 14.5t-95 55.5t-70 111.5t-27 185.5z" />
<glyph unicode="D" horiz-adv-x="712" d="M25 33v1317q0 12 9 21t23 9h203q164 0 244 -98q76 -90 76 -274v-635q0 -184 -76 -275q-80 -98 -244 -98h-203q-32 0 -32 33zM88 63h172q133 0 193.5 75t60.5 235v635q0 160 -60.5 234.5t-193.5 74.5h-172v-1254z" />
<glyph unicode="E" horiz-adv-x="638" d="M23 33v1317q0 12 9 21t23 9h430q14 0 23.5 -9t9.5 -21q0 -33 -33 -33h-399v-594h399q33 0 33 -33q0 -12 -9 -21.5t-24 -9.5h-399v-596h399q14 0 23.5 -9t9.5 -21q0 -33 -33 -33h-430q-32 0 -32 33z" />
<glyph unicode="F" horiz-adv-x="630" d="M31 33v1317q0 12 9 21t23 9h431q14 0 23 -9t9 -21q0 -33 -32 -33h-400v-594h400q33 0 32 -33q0 -12 -9 -21.5t-23 -9.5h-400v-626q0 -14 -9 -23.5t-22 -9.5q-32 0 -32 33z" />
<glyph unicode="G" horiz-adv-x="720" d="M14 365v653q0 178 74 270t221.5 92t221 -92t73.5 -270q0 -33 -32.5 -33t-32.5 33q0 100 -22.5 159.5t-56.5 90t-74 40t-77 9.5t-78 -9.5t-74.5 -40t-56 -90t-22.5 -159.5v-653q0 -154 59 -230q59 -72 172 -72t172 72q57 72 58 230v180h-267q-33 0 -32.5 32.5t32.5 32.5 h299q33 0 33 -32v-213q0 -178 -74 -271q-76 -94 -221 -94t-221 94q-74 93 -74 271z" />
<glyph unicode="H" horiz-adv-x="704" d="M25 33v1317q0 12 9 21t23.5 9t23.5 -9t9 -21v-627h418v627q0 12 9 21t23.5 9t23.5 -9t9 -21v-1317q0 -33 -32.5 -33t-32.5 33v624h-418v-624q0 -33 -32.5 -33t-32.5 33z" />
<glyph unicode="I" horiz-adv-x="215" d="M37 33v1317q0 12 9 21t23.5 9t23.5 -9t9 -21v-1317q0 -33 -32.5 -33t-32.5 33z" />
<glyph unicode="J" horiz-adv-x="663" d="M0 338q0 12 9 22.5t24 10.5q12 0 21 -10.5t9 -22.5q0 -92 20.5 -146.5t51.5 -83t68 -37t71 -8.5q102 0 156 64q53 70 53 211v1012q0 12 9.5 21t23.5 9q12 0 21.5 -9t9.5 -21v-1012q0 -168 -68 -250q-68 -88 -205 -88t-206 88q-68 82 -68 250z" />
<glyph unicode="K" horiz-adv-x="737" d="M16 33v1317q0 12 9.5 21t23.5 9q12 0 21.5 -9t9.5 -21v-754l516 770q8 12 21 14q3 1 7 1q9 0 17 -5q14 -11 14 -28q0 -9 -6 -17l-389 -586l391 -698q4 -6 4 -13q0 -5 -2 -10q-4 -13 -14 -20q-12 -4 -16 -4q-18 0 -29 16l-375 670l-139 -209v-444q0 -14 -9.5 -23.5 t-21.5 -9.5q-33 0 -33 33z" />
<glyph unicode="L" horiz-adv-x="604" d="M10 33v1317q0 12 9.5 21t23.5 9q12 0 21.5 -9t9.5 -21v-1287h432q14 0 23.5 -9t9.5 -21q0 -33 -33 -33h-463q-33 0 -33 33z" />
<glyph unicode="M" horiz-adv-x="968" d="M14 33v1317q0 27 29 30q4 1 7 1q21 0 28 -23l346 -1208l348 1208q7 23 28 23q3 0 7 -1q29 -4 29 -30v-1317q0 -14 -10.5 -23.5t-22.5 -9.5q-33 0 -33 33v1085l-313 -1095q-8 -23 -33 -23q-23 0 -31 23l-313 1095v-1085q0 -33 -33 -33t-33 33z" />
<glyph unicode="N" horiz-adv-x="737" d="M20 33v1317q0 27 27 30q4 1 7 1q21 0 30 -21l467 -1161v1151q0 12 9 21t23.5 9t23.5 -9t9 -21v-1317q0 -27 -26 -33h-6q-23 0 -29 20l-469 1162v-1149q0 -33 -33 -33t-33 33z" />
<glyph unicode="O" horiz-adv-x="712" d="M20 367v649q0 176 72 270q76 94 221 94q147 0 222 -94q74 -92 73 -270v-649q0 -115 -26.5 -185.5t-69.5 -111.5t-95 -55.5t-104 -14.5q-49 0 -101 14.5t-95 55.5t-70 111.5t-27 185.5zM84 367q0 -156 59 -232q55 -72 170 -72q113 0 172 72q57 72 58 232v649 q0 158 -57.5 229.5t-172.5 71.5q-117 0 -170 -72q-59 -76 -59 -229v-649z" />
<glyph unicode="P" horiz-adv-x="696" d="M20 33v1317q0 12 9.5 21t23.5 9h217q166 0 244 -90q76 -88 76 -270t-76 -270q-78 -90 -244 -91h-184v-626q0 -33 -33 -33t-33 33zM86 723h184q133 0 195 70q59 68 59 227.5t-59 228t-195 68.5h-184v-594z" />
<glyph unicode="Q" horiz-adv-x="712" d="M14 373v649q0 176 74 266q74 92 219 92q147 0 221 -92q72 -86 72 -266v-649q0 -180 -72 -273q0 -2 -1 -2t-1 -2l78 -94q7 -8 7 -18q0 -17 -13 -27q-6 -8 -18 -8q-18 0 -27 12l-74 90q-66 -51 -172 -51q-145 0 -221 100q-72 97 -72 273zM78 373q0 -156 59 -234 q57 -76 170 -76q78 0 131 37l-69 88q-10 10 -8.5 22.5t12.5 22.5q25 16 45 -4l65 -82q53 78 54 226v649q0 152 -60 227q-55 68 -169.5 68t-170.5 -68q-59 -76 -59 -227v-649z" />
<glyph unicode="R" horiz-adv-x="712" d="M27 35v1317q0 12 9 21t21 9h217q164 0 242 -88t78 -276q0 -186 -76 -277q-33 -39 -84 -61q20 -10 37.5 -22.5t34.5 -28.5q90 -86 90 -244v-350q0 -33 -33 -33q-12 0 -21.5 9t-9.5 24v350q0 127 -67.5 195.5t-190.5 68.5h-184v-614q0 -33 -33 -33q-12 0 -21 9.5t-9 23.5z M90 713h184q133 0 195 71q59 68 59 234q0 160 -59 230.5t-195 70.5h-184v-606z" />
<glyph unicode="S" horiz-adv-x="720" d="M29 1016q0 156 71 256q80 111 224 110q147 0 223 -94q74 -92 74 -272q0 -12 -9.5 -22.5t-24 -10.5t-23.5 10.5t-9 22.5q0 156 -59 231q-55 72 -172 72q-109 0 -170 -86q-61 -84 -62 -217q0 -74 24.5 -125t60.5 -85t75 -54.5t70 -32.5l32 -14l72 -35q45 -23 88 -63 t75 -100.5t32 -150.5q0 -76 -19.5 -139t-54.5 -111q-80 -104 -223 -104q-147 0 -222 94q-74 92 -73 271q0 33 32 32q12 0 21.5 -9t9.5 -23q0 -100 22.5 -160t56.5 -91.5t75 -40.5t78 -9q111 0 171 76.5t60 213.5q0 74 -25.5 124t-61.5 82t-75 50l-63 31l-35 16 q-31 12 -76 36t-87 66t-72.5 103.5t-30.5 151.5z" />
<glyph unicode="T" horiz-adv-x="778" d="M-29 1352q0 12 9.5 21t21.5 9h662q14 0 23 -9t9 -21q0 -33 -32 -33h-297v-1284q0 -14 -10.5 -23.5t-22.5 -9.5q-33 0 -33 33v1284h-299q-12 0 -21.5 9.5t-9.5 23.5z" />
<glyph unicode="U" horiz-adv-x="712" d="M18 340v1012q0 12 9.5 21t23.5 9q12 0 21.5 -9t9.5 -21v-1012q0 -92 20.5 -146.5t51 -83t67.5 -36.5t72 -8q33 0 69.5 8t67.5 36.5t51.5 83t20.5 146.5v1012q0 12 9 21t21 9q14 0 23.5 -9t9.5 -21v-1012q0 -104 -24.5 -170t-64.5 -103.5t-88 -51t-95 -13.5t-95 13.5 t-88 51t-66 103.5t-26 170z" />
<glyph unicode="V" horiz-adv-x="821" d="M12 1343q-1 4 -1 9q0 8 4 15q7 11 22 15q4 1 9 2q8 0 14 -5q11 -7 16 -21l297 -1190l299 1190q4 14 15 21q7 5 15 5q4 0 9 -2q12 -4 19 -15q5 -7 5 -15q0 -4 -2 -9l-327 -1316q-6 -25 -33 -25q-25 0 -31 25z" />
<glyph unicode="W" horiz-adv-x="1333" d="M10 1343q-1 4 -1 9q0 8 5 15q8 11 21 15q4 1 8 1q26 0 31 -25l258 -1174l260 1174q4 25 30.5 24.5t32.5 -24.5l258 -1174l258 1174q4 12 16 19q9 6 18 6q3 0 5 -1q14 -4 22 -15q5 -7 4 -15q0 -4 -1 -9l-291 -1316q-4 -25 -30.5 -25t-30.5 25l-260 1173l-258 -1173 q-6 -25 -33 -25q-25 0 -31 25z" />
<glyph unicode="X" horiz-adv-x="802" d="M18 47l306 645l-306 643q-2 6 -2 12.5t2 13.5q4 13 17 17q10 5 17 5q16 0 26 -19l280 -596l281 596q6 12 19 16q5 2 11 2q7 0 13 -4q12 -4 17 -17q2 -6 3 -12q0 -7 -4 -14l-303 -643l303 -645q3 -7 4 -13q0 -6 -3 -11q-5 -12 -17 -19q-4 -2 -12 -2q-23 0 -31 18l-281 596 l-280 -596q-10 -18 -29 -18q-10 0 -14 2q-19 10 -19 28q-1 7 2 15z" />
<glyph unicode="Y" horiz-adv-x="854" d="M7 1359q3 13 16 19q7 4 14 4l10 -2q12 -4 21 -14l331 -606l334 606q6 10 20 14q5 2 10 2q7 0 13 -4q12 -6 17 -19q1 -4 1 -9q0 -8 -6 -15l-356 -651v-651q0 -12 -9 -21.5t-23.5 -9.5t-23.5 9t-9 22v651l-357 651q-4 7 -4 15q0 5 1 9z" />
<glyph unicode="Z" horiz-adv-x="837" d="M6 1349.5q0 32.5 33 32.5h616q18 0 27 -14q10 -18 2 -33l-596 -1269h567q33 0 33 -33q0 -12 -9 -21.5t-24 -9.5h-616q-20 0 -29 14q-5 9 -4 18q0 7 2 13l596 1270h-565q-33 0 -33 32.5z" />
<glyph unicode="[" />
<glyph unicode="\" horiz-adv-x="778" d="M66 1337q-2 5 -2 11q0 7 3 14q5 12 17 16q9 3 16 3q20 0 27 -21l483 -1317q2 -5 2 -11q0 -7 -3 -14q-5 -12 -17 -16q-4 -2 -12 -2q-20 0 -31 20z" />
<glyph unicode="]" />
<glyph unicode="^" />
<glyph unicode="_" horiz-adv-x="944" d="M20 -33q0 12 9.5 21.5t23.5 9.5h762q14 0 23.5 -9t9.5 -22q0 -33 -33 -33h-762q-33 0 -33 33z" />
<glyph unicode="`" horiz-adv-x="165" d="M23 1233v117q0 14 9 23t21 9q33 0 33 -32v-117q0 -12 -9 -21.5t-24 -9.5q-12 0 -21 9.5t-9 21.5z" />
<glyph unicode="a" horiz-adv-x="802" d="M27 39l305 1317q6 25 30 24q27 0 33 -24l305 -1317l2 -8q0 -8 -6 -16q-8 -11 -20 -15h-8q-25 0 -31 25l-92 397h-363l-92 -397q-4 -12 -15 -21q-8 -5 -16 -5q-4 0 -8 1q-14 4 -21 15q-5 7 -5 15q1 5 2 9zM197 485h333l-168 721z" />
<glyph unicode="b" horiz-adv-x="688" d="M29 33v1317q0 12 9 21t23 9h195q158 0 233 -90q72 -90 72 -270q0 -178 -72 -268q-16 -20 -34.5 -35t-40.5 -27q45 -23 75 -59q72 -90 72 -270.5t-72 -270.5q-76 -90 -233 -90h-195q-32 0 -32 33zM94 63h162q129 0 184.5 69t55.5 228.5t-58 229.5q-55 70 -182 69h-162 v-596zM94 723h162q127 0 182 70q57 70 58 227q0 160 -55.5 228.5t-184.5 68.5h-162v-594z" />
<glyph unicode="c" horiz-adv-x="704" d="M20 367v649q0 113 27 184.5t70 111.5t95 54t101 14q51 0 103.5 -14t95.5 -54t69.5 -112t26.5 -184q0 -33 -32.5 -33t-32.5 33q0 154 -60 229q-53 72 -170 72q-113 0 -170 -72q-59 -76 -59 -229v-649q0 -154 59 -232q59 -72 170 -72q115 0 170 72q59 78 60 232 q0 33 32.5 32.5t32.5 -32.5q0 -115 -26.5 -185.5t-69.5 -111.5t-95 -55.5t-104 -14.5q-49 0 -101 14.5t-95 55.5t-70 111.5t-27 185.5z" />
<glyph unicode="d" horiz-adv-x="712" d="M25 33v1317q0 12 9 21t23 9h203q164 0 244 -98q76 -90 76 -274v-635q0 -184 -76 -275q-80 -98 -244 -98h-203q-32 0 -32 33zM88 63h172q133 0 193.5 75t60.5 235v635q0 160 -60.5 234.5t-193.5 74.5h-172v-1254z" />
<glyph unicode="e" horiz-adv-x="638" d="M23 33v1317q0 12 9 21t23 9h430q14 0 23.5 -9t9.5 -21q0 -33 -33 -33h-399v-594h399q33 0 33 -33q0 -12 -9 -21.5t-24 -9.5h-399v-596h399q14 0 23.5 -9t9.5 -21q0 -33 -33 -33h-430q-32 0 -32 33z" />
<glyph unicode="f" horiz-adv-x="630" d="M31 33v1317q0 12 9 21t23 9h431q14 0 23 -9t9 -21q0 -33 -32 -33h-400v-594h400q33 0 32 -33q0 -12 -9 -21.5t-23 -9.5h-400v-626q0 -14 -9 -23.5t-22 -9.5q-32 0 -32 33z" />
<glyph unicode="g" horiz-adv-x="720" d="M14 365v653q0 178 74 270t221.5 92t221 -92t73.5 -270q0 -33 -32.5 -33t-32.5 33q0 100 -22.5 159.5t-56.5 90t-74 40t-77 9.5t-78 -9.5t-74.5 -40t-56 -90t-22.5 -159.5v-653q0 -154 59 -230q59 -72 172 -72t172 72q57 72 58 230v180h-267q-33 0 -32.5 32.5t32.5 32.5 h299q33 0 33 -32v-213q0 -178 -74 -271q-76 -94 -221 -94t-221 94q-74 93 -74 271z" />
<glyph unicode="h" horiz-adv-x="704" d="M25 33v1317q0 12 9 21t23.5 9t23.5 -9t9 -21v-627h418v627q0 12 9 21t23.5 9t23.5 -9t9 -21v-1317q0 -33 -32.5 -33t-32.5 33v624h-418v-624q0 -33 -32.5 -33t-32.5 33z" />
<glyph unicode="i" horiz-adv-x="215" d="M37 33v1317q0 12 9 21t23.5 9t23.5 -9t9 -21v-1317q0 -33 -32.5 -33t-32.5 33z" />
<glyph unicode="j" horiz-adv-x="663" d="M0 338q0 12 9 22.5t24 10.5q12 0 21 -10.5t9 -22.5q0 -92 20.5 -146.5t51.5 -83t68 -37t71 -8.5q102 0 156 64q53 70 53 211v1012q0 12 9.5 21t23.5 9q12 0 21.5 -9t9.5 -21v-1012q0 -168 -68 -250q-68 -88 -205 -88t-206 88q-68 82 -68 250z" />
<glyph unicode="k" horiz-adv-x="737" d="M16 33v1317q0 12 9.5 21t23.5 9q12 0 21.5 -9t9.5 -21v-754l516 770q8 12 21 14q3 1 7 1q9 0 17 -5q14 -11 14 -28q0 -9 -6 -17l-389 -586l391 -698q4 -6 4 -13q0 -5 -2 -10q-4 -13 -14 -20q-12 -4 -16 -4q-18 0 -29 16l-375 670l-139 -209v-444q0 -14 -9.5 -23.5 t-21.5 -9.5q-33 0 -33 33z" />
<glyph unicode="l" horiz-adv-x="604" d="M10 33v1317q0 12 9.5 21t23.5 9q12 0 21.5 -9t9.5 -21v-1287h432q14 0 23.5 -9t9.5 -21q0 -33 -33 -33h-463q-33 0 -33 33z" />
<glyph unicode="m" horiz-adv-x="968" d="M14 33v1317q0 27 29 30q4 1 7 1q21 0 28 -23l346 -1208l348 1208q7 23 28 23q3 0 7 -1q29 -4 29 -30v-1317q0 -14 -10.5 -23.5t-22.5 -9.5q-33 0 -33 33v1085l-313 -1095q-8 -23 -33 -23q-23 0 -31 23l-313 1095v-1085q0 -33 -33 -33t-33 33z" />
<glyph unicode="n" horiz-adv-x="737" d="M20 33v1317q0 27 27 30q4 1 7 1q21 0 30 -21l467 -1161v1151q0 12 9 21t23.5 9t23.5 -9t9 -21v-1317q0 -27 -26 -33h-6q-23 0 -29 20l-469 1162v-1149q0 -33 -33 -33t-33 33z" />
<glyph unicode="o" horiz-adv-x="712" d="M20 367v649q0 176 72 270q76 94 221 94q147 0 222 -94q74 -92 73 -270v-649q0 -115 -26.5 -185.5t-69.5 -111.5t-95 -55.5t-104 -14.5q-49 0 -101 14.5t-95 55.5t-70 111.5t-27 185.5zM84 367q0 -156 59 -232q55 -72 170 -72q113 0 172 72q57 72 58 232v649 q0 158 -57.5 229.5t-172.5 71.5q-117 0 -170 -72q-59 -76 -59 -229v-649z" />
<glyph unicode="p" horiz-adv-x="696" d="M20 33v1317q0 12 9.5 21t23.5 9h217q166 0 244 -90q76 -88 76 -270t-76 -270q-78 -90 -244 -91h-184v-626q0 -33 -33 -33t-33 33zM86 723h184q133 0 195 70q59 68 59 227.5t-59 228t-195 68.5h-184v-594z" />
<glyph unicode="q" horiz-adv-x="712" d="M14 373v649q0 176 74 266q74 92 219 92q147 0 221 -92q72 -86 72 -266v-649q0 -180 -72 -273q0 -2 -1 -2t-1 -2l78 -94q7 -8 7 -18q0 -17 -13 -27q-6 -8 -18 -8q-18 0 -27 12l-74 90q-66 -51 -172 -51q-145 0 -221 100q-72 97 -72 273zM78 373q0 -156 59 -234 q57 -76 170 -76q78 0 131 37l-69 88q-10 10 -8.5 22.5t12.5 22.5q25 16 45 -4l65 -82q53 78 54 226v649q0 152 -60 227q-55 68 -169.5 68t-170.5 -68q-59 -76 -59 -227v-649z" />
<glyph unicode="r" horiz-adv-x="712" d="M27 35v1317q0 12 9 21t21 9h217q164 0 242 -88t78 -276q0 -186 -76 -277q-33 -39 -84 -61q20 -10 37.5 -22.5t34.5 -28.5q90 -86 90 -244v-350q0 -33 -33 -33q-12 0 -21.5 9t-9.5 24v350q0 127 -67.5 195.5t-190.5 68.5h-184v-614q0 -33 -33 -33q-12 0 -21 9.5t-9 23.5z M90 713h184q133 0 195 71q59 68 59 234q0 160 -59 230.5t-195 70.5h-184v-606z" />
<glyph unicode="s" horiz-adv-x="720" d="M29 1016q0 156 71 256q80 111 224 110q147 0 223 -94q74 -92 74 -272q0 -12 -9.5 -22.5t-24 -10.5t-23.5 10.5t-9 22.5q0 156 -59 231q-55 72 -172 72q-109 0 -170 -86q-61 -84 -62 -217q0 -74 24.5 -125t60.5 -85t75 -54.5t70 -32.5l32 -14l72 -35q45 -23 88 -63 t75 -100.5t32 -150.5q0 -76 -19.5 -139t-54.5 -111q-80 -104 -223 -104q-147 0 -222 94q-74 92 -73 271q0 33 32 32q12 0 21.5 -9t9.5 -23q0 -100 22.5 -160t56.5 -91.5t75 -40.5t78 -9q111 0 171 76.5t60 213.5q0 74 -25.5 124t-61.5 82t-75 50l-63 31l-35 16 q-31 12 -76 36t-87 66t-72.5 103.5t-30.5 151.5z" />
<glyph unicode="t" horiz-adv-x="778" d="M-29 1352q0 12 9.5 21t21.5 9h662q14 0 23 -9t9 -21q0 -33 -32 -33h-297v-1284q0 -14 -10.5 -23.5t-22.5 -9.5q-33 0 -33 33v1284h-299q-12 0 -21.5 9.5t-9.5 23.5z" />
<glyph unicode="u" horiz-adv-x="712" d="M18 340v1012q0 12 9.5 21t23.5 9q12 0 21.5 -9t9.5 -21v-1012q0 -92 20.5 -146.5t51 -83t67.5 -36.5t72 -8q33 0 69.5 8t67.5 36.5t51.5 83t20.5 146.5v1012q0 12 9 21t21 9q14 0 23.5 -9t9.5 -21v-1012q0 -104 -24.5 -170t-64.5 -103.5t-88 -51t-95 -13.5t-95 13.5 t-88 51t-66 103.5t-26 170z" />
<glyph unicode="v" horiz-adv-x="821" d="M12 1343q-1 4 -1 9q0 8 4 15q7 11 22 15q4 1 9 2q8 0 14 -5q11 -7 16 -21l297 -1190l299 1190q4 14 15 21q7 5 15 5q4 0 9 -2q12 -4 19 -15q5 -7 5 -15q0 -4 -2 -9l-327 -1316q-6 -25 -33 -25q-25 0 -31 25z" />
<glyph unicode="w" horiz-adv-x="1333" d="M10 1343q-1 4 -1 9q0 8 5 15q8 11 21 15q4 1 8 1q26 0 31 -25l258 -1174l260 1174q4 25 30.5 24.5t32.5 -24.5l258 -1174l258 1174q4 12 16 19q9 6 18 6q3 0 5 -1q14 -4 22 -15q5 -7 4 -15q0 -4 -1 -9l-291 -1316q-4 -25 -30.5 -25t-30.5 25l-260 1173l-258 -1173 q-6 -25 -33 -25q-25 0 -31 25z" />
<glyph unicode="x" horiz-adv-x="802" d="M18 47l306 645l-306 643q-2 6 -2 12.5t2 13.5q4 13 17 17q10 5 17 5q16 0 26 -19l280 -596l281 596q6 12 19 16q5 2 11 2q7 0 13 -4q12 -4 17 -17q2 -6 3 -12q0 -7 -4 -14l-303 -643l303 -645q3 -7 4 -13q0 -6 -3 -11q-5 -12 -17 -19q-4 -2 -12 -2q-23 0 -31 18l-281 596 l-280 -596q-10 -18 -29 -18q-10 0 -14 2q-19 10 -19 28q-1 7 2 15z" />
<glyph unicode="y" horiz-adv-x="854" d="M7 1359q3 13 16 19q7 4 14 4l10 -2q12 -4 21 -14l331 -606l334 606q6 10 20 14q5 2 10 2q7 0 13 -4q12 -6 17 -19q1 -4 1 -9q0 -8 -6 -15l-356 -651v-651q0 -12 -9 -21.5t-23.5 -9.5t-23.5 9t-9 22v651l-357 651q-4 7 -4 15q0 5 1 9z" />
<glyph unicode="z" horiz-adv-x="837" d="M6 1349.5q0 32.5 33 32.5h616q18 0 27 -14q10 -18 2 -33l-596 -1269h567q33 0 33 -33q0 -12 -9 -21.5t-24 -9.5h-616q-20 0 -29 14q-5 9 -4 18q0 7 2 13l596 1270h-565q-33 0 -33 32.5z" />
<glyph unicode="{" />
<glyph unicode="|" horiz-adv-x="182" d="M16 33v1317q0 12 9.5 21t23.5 9t23.5 -9t9.5 -21v-1317q0 -33 -33 -33t-33 33z" />
<glyph unicode="}" />
<glyph unicode="~" />
<glyph unicode="&#xa9;" />
<glyph unicode="&#xad;" horiz-adv-x="612" d="M14 692q0 33 33 33h436q12 0 21.5 -9t9.5 -23.5t-9 -24t-22 -9.5h-436q-33 0 -33 33z" />
<glyph unicode="&#xae;" />
<glyph unicode="&#x2000;" horiz-adv-x="692" />
<glyph unicode="&#x2001;" horiz-adv-x="1384" />
<glyph unicode="&#x2002;" horiz-adv-x="692" />
<glyph unicode="&#x2003;" horiz-adv-x="1384" />
<glyph unicode="&#x2004;" horiz-adv-x="460" />
<glyph unicode="&#x2005;" horiz-adv-x="346" />
<glyph unicode="&#x2006;" horiz-adv-x="229" />
<glyph unicode="&#x2007;" horiz-adv-x="229" />
<glyph unicode="&#x2008;" horiz-adv-x="172" />
<glyph unicode="&#x2009;" horiz-adv-x="276" />
<glyph unicode="&#x200a;" horiz-adv-x="75" />
<glyph unicode="&#x2010;" horiz-adv-x="612" d="M14 692q0 33 33 33h436q12 0 21.5 -9t9.5 -23.5t-9 -24t-22 -9.5h-436q-33 0 -33 33z" />
<glyph unicode="&#x2011;" horiz-adv-x="612" d="M14 692q0 33 33 33h436q12 0 21.5 -9t9.5 -23.5t-9 -24t-22 -9.5h-436q-33 0 -33 33z" />
<glyph unicode="&#x2012;" horiz-adv-x="612" d="M14 692q0 33 33 33h436q12 0 21.5 -9t9.5 -23.5t-9 -24t-22 -9.5h-436q-33 0 -33 33z" />
<glyph unicode="&#x2013;" horiz-adv-x="612" d="M27 657v64h499v-64h-499z" />
<glyph unicode="&#x2014;" horiz-adv-x="612" d="M27 657v64h499v-64h-499z" />
<glyph unicode="&#x2018;" horiz-adv-x="165" d="M23 1233v117q0 14 9 23t21 9q33 0 33 -32v-117q0 -12 -9 -21.5t-24 -9.5q-12 0 -21 9.5t-9 21.5z" />
<glyph unicode="&#x2019;" horiz-adv-x="165" d="M23 1233v117q0 14 9 23t21 9q33 0 33 -32v-117q0 -12 -9 -21.5t-24 -9.5q-12 0 -21 9.5t-9 21.5z" />
<glyph unicode="&#x201c;" horiz-adv-x="331" d="M23 1233v117q0 14 9 23t21 9q33 0 33 -32v-117q0 -12 -9 -21.5t-24 -9.5q-12 0 -21 9.5t-9 21.5zM143 1233v117q0 33 33 32.5t33 -32.5v-117q0 -12 -9.5 -21.5t-23.5 -9.5t-23.5 9.5t-9.5 21.5z" />
<glyph unicode="&#x201d;" horiz-adv-x="331" d="M23 1233v117q0 14 9 23t21 9q33 0 33 -32v-117q0 -12 -9 -21.5t-24 -9.5q-12 0 -21 9.5t-9 21.5zM143 1233v117q0 33 33 32.5t33 -32.5v-117q0 -12 -9.5 -21.5t-23.5 -9.5t-23.5 9.5t-9.5 21.5z" />
<glyph unicode="&#x2022;" />
<glyph unicode="&#x2026;" horiz-adv-x="497" d="M29 33v24q0 12 9 21.5t23.5 9.5t23.5 -9t9 -22v-24q0 -33 -32.5 -33t-32.5 33zM195 33v24q0 12 9 21.5t23.5 9.5t23.5 -9t9 -22v-24q0 -33 -32.5 -33t-32.5 33zM360 33v24q0 12 9.5 21.5t24 9.5t23.5 -9t9 -22v-24q0 -33 -33 -33t-33 33z" />
<glyph unicode="&#x202f;" horiz-adv-x="276" />
<glyph unicode="&#x205f;" horiz-adv-x="346" />
<glyph unicode="&#xe000;" horiz-adv-x="1385" d="M0 1385h1385v-1385h-1385v1385z" />
</font>
</defs>
</svg>
