<?xml version="1.0" standalone="no"?>
<!DOCTYPE svg PUBLIC "-//W3C//DTD SVG 1.1//EN" "http://www.w3.org/Graphics/SVG/1.1/DTD/svg11.dtd" >
<svg xmlns="http://www.w3.org/2000/svg" xmlns:xlink="http://www.w3.org/1999/xlink" version="1.1">
<metadata></metadata>
<defs>
<font id="foundation-icons-ciconscustom" horiz-adv-x="369" >
<font-face units-per-em="512" ascent="448" descent="-64" />
<missing-glyph horiz-adv-x="500" />
<glyph unicode="&#xd;" horiz-adv-x="170" />
<glyph unicode="&#x25fc;" horiz-adv-x="500" d="M0 0v0v0v0v0z" />
<glyph unicode="&#xf100;" horiz-adv-x="340" d="M330 287h-24v-30h24q10 0 10 -10v-30q0 -10 -10 -10h-24v-29h24q10 0 10 -11v-30q0 -10 -10 -10h-24v-29h24q10 0 10 -11v-30q0 -10 -10 -10h-24v-9q0 -16 -16 -16h-274q-16 0 -16 16v308q0 16 16 16h274q16 0 16 -16v-9h24q10 0 10 -10v-30q0 -10 -10 -10zM234 122v44 q0 6 -6 10l-55 26q21 13 21 42q0 20 -12 34t-29 14t-29 -14t-12 -34q0 -28 22 -42l-56 -26q-5 -3 -5 -10v-44q0 -11 9 -11h142q10 0 10 11z" />
<glyph unicode="&#xf101;" horiz-adv-x="425" d="M423 31q2 -4 2 -7q0 -7 -5.5 -12.5t-13.5 -5.5h-388q-8 0 -13 5t-5 13t4 12l191 331h1q6 11 16 11q12 0 16 -9l193 -334q0 -1 0.5 -1t0.5 -1zM213 40q11 0 18.5 8t7.5 19t-7.5 18.5t-18.5 7.5t-19 -7.5t-8 -18.5t8 -19t19 -8zM239 273v0v0q0 10 -11 10h-32q-10 0 -10 -10 v-1v-144v0q0 -11 11 -11h31v0q11 0 11 11v0v145z" />
<glyph unicode="&#xf102;" horiz-adv-x="355" d="M337 370q18 0 18 -17v-16q0 -17 -18 -17h-320q-17 0 -17 17v16q0 17 17 17h320zM312 235q0 -17 -18 -17h-233q-18 0 -18 17v16q0 17 18 17h233q18 0 18 -17v-16zM320 64q17 0 17 -17v-16q0 -17 -17 -17h-285q-18 0 -18 17v16q0 17 18 17h285zM294 149v-16q0 -17 -17 -17 v0h-199q-17 0 -17 17v16q0 17 17 17h199v0q17 0 17 -17z" />
<glyph unicode="&#xf103;" horiz-adv-x="355" d="M337 369q18 0 18 -17v-16q0 -8 -5.5 -13t-12.5 -5h-320q-17 0 -17 18v16q0 17 17 17h320zM337 268q18 0 18 -17v-16q0 -7 -5.5 -12.5t-12.5 -5.5h-320q-17 0 -17 18v16q0 17 17 17h320zM337 167q7 0 12.5 -5.5t5.5 -12.5v-16q0 -17 -18 -17h-320q-17 0 -17 17v16 q0 18 17 18h320zM337 66q7 0 12.5 -5t5.5 -13v-16q0 -17 -18 -17h-320q-17 0 -17 17v16q0 18 17 18h320z" />
<glyph unicode="&#xf104;" horiz-adv-x="355" d="M337 370q18 0 18 -17v-16q0 -17 -18 -17h-320q-17 0 -17 17v16q0 17 17 17h320zM17 218q-17 0 -17 17v16q0 18 17 18h234q7 0 12.5 -5.5t5.5 -12.5v-16q0 -17 -18 -17h-234zM302 64q18 0 18 -17v-16q0 -17 -18 -17h-285q-17 0 -17 17v16q0 17 17 17h285zM17 116 q-17 0 -17 17v16q0 17 17 17h199v0q18 0 18 -17v-16q0 -17 -18 -17v0h-199z" />
<glyph unicode="&#xf105;" horiz-adv-x="355" d="M337 370q18 0 18 -17v-16q0 -17 -18 -17h-320q-17 0 -17 17v16q0 17 17 17h320zM337 268q18 0 18 -17v-16q0 -17 -18 -17h-233q-18 0 -18 17v16q0 17 18 17h233zM337 64q18 0 18 -17v-16q0 -17 -18 -17h-285q-17 0 -17 17v16q0 17 17 17h285v0zM355 149v-16 q0 -17 -18 -17v0h-199q-17 0 -17 17v16q0 17 17 17h199v0q18 0 18 -17z" />
<glyph unicode="&#xf106;" horiz-adv-x="393" d="M392 104q1 -1 1 -4q0 -8 -8 -8h-21q-25 -44 -69.5 -70.5t-97.5 -26.5t-97.5 26.5t-69.5 70.5h-22q-8 0 -8 8q0 3 2 5l47 82q2 5 7 5t7 -4l48 -84q2 -2 2 -4q0 -8 -9 -8h-12q32 -35 79 -44v150h-46q-8 0 -8 8v35q0 8 8 8h46v27q-34 17 -34 54q0 25 17.5 42t42.5 17t42 -17 t17 -42q0 -37 -34 -54v-27h47q8 0 8 -8v-35q0 -8 -8 -8h-47v-150q47 9 79 44h-12q-8 0 -8 8q0 3 2 5l46 82q2 5 8 5q5 0 7 -4zM197 296q13 0 23 10t10 24t-10 23.5t-23 9.5q-14 0 -24 -10t-10 -23q0 -14 10.5 -24t23.5 -10z" />
<glyph unicode="&#xf107;" horiz-adv-x="388" d="M360 98q28 -15 28 -47q0 -22 -15.5 -38t-37.5 -16q-36 0 -50 34h-182q-14 -34 -50 -34q-22 0 -37.5 16t-15.5 38q0 32 28 47v188q-28 15 -28 47q0 22 15.5 38t37.5 16q27 0 44 -24h194q17 24 44 24q22 0 37.5 -16t15.5 -38q0 -32 -28 -47v-188zM79 98q9 -5 18 -16h195 q10 12 17 16v188q-15 8 -23 26h-184q-8 -18 -23 -26v-188z" />
<glyph unicode="&#xf108;" horiz-adv-x="401" d="M401 279v-247q0 -9 -6 -15t-15 -6h-1h-357h-1q-9 0 -15 6t-6 15v247v1q0 7 5 14l42 72q3 7 11 7v0h284h1q11 0 13 -10l40 -69v-1q5 -7 5 -13v-1zM269 154q2 4 1 6q-2 3 -6 3h-30v81q0 6 -6 6h-55q-6 0 -6 -6v-81h-30q-5 0 -6 -3q-1 -2 1 -6l64 -90q1 -2 5 -2t5 2zM39 301 h323l-27 47h-269z" />
<glyph unicode="&#xf109;" horiz-adv-x="292" d="M2 188q-5 6 -1 13q3 7 12 7h62v167q0 13 13 13h116q12 0 12 -13v-167h63q7 0 11 -7t-1 -13l-132 -187q-3 -5 -11 -5q-7 0 -10 5z" />
<glyph unicode="&#xf10a;" horiz-adv-x="393" d="M192 335q6 5 13 1t7 -11v-62h168q13 0 13 -13v-116q0 -13 -13 -13h-168v-62q0 -7 -7 -11t-13 1l-187 132q-5 3 -5 11q0 7 5 10z" />
<glyph unicode="&#xf10b;" horiz-adv-x="393" d="M201 49q-6 -5 -14 -1q-7 4 -7 11v62h-167q-13 0 -13 13v116q0 13 13 13h167v62q0 7 7 11q8 4 14 -1l186 -132q6 -4 6 -11q0 -6 -6 -10z" />
<glyph unicode="&#xf10c;" horiz-adv-x="292" d="M289 196q5 -6 1 -13t-11 -7h-63v-167q0 -13 -12 -13h-116q-13 0 -13 13v167h-62q-9 0 -12 7q-4 7 1 13l133 187q3 5 10 5q8 0 11 -5z" />
<glyph unicode="&#xf10d;" horiz-adv-x="512" d="M201 -5q-2 -5 -7 -7t-9 2l-30 31l-83 -82q-6 -7 -13 0l-56 56q-7 7 0 13l82 83l-31 30q-4 4 -2 9t7 7l157 26q6 0 8 -2q3 -3 3 -8zM311 389q2 5 7 7t9 -2l30 -31l83 82q6 7 13 0l56 -56q7 -7 0 -13l-82 -83l31 -30q4 -4 2 -9t-7 -7l-157 -26q-6 0 -8 2q-3 3 -3 8z" />
<glyph unicode="&#xf10e;" horiz-adv-x="512" d="M26 104q2 6 6 7q5 2 9 -2l31 -31l83 83q6 6 12 0l57 -57q6 -6 0 -13l-82 -82l30 -31q4 -5 3 -9t-7 -6l-158 -27q-4 0 -7 3t-3 7zM486 280q-2 -6 -6 -7q-5 -2 -9 2l-31 31l-83 -83q-6 -6 -12 0l-57 57q-6 6 0 13l82 82l-30 31q-4 4 -3 9q1 4 7 6l158 27q4 0 7 -3t3 -7z " />
<glyph unicode="&#xf10f;" horiz-adv-x="512" d="M184 -10q-2 -5 -5 -6q-5 -2 -9 2l-28 28l-76 -76q-6 -6 -11 0l-53 53q-6 5 0 11l76 76l-28 28q-4 4 -2 9q1 3 6 5l145 25q4 0 7 -3q2 -2 2 -7zM328 394q2 5 5 6q5 2 9 -2l28 -28l76 76q6 6 11 0l53 -53q6 -5 0 -11l-76 -76l28 -28q4 -4 2 -9q-1 -3 -6 -5l-145 -25 q-4 0 -7 3q-2 2 -2 7zM458 120q5 -2 6 -5q2 -5 -2 -9l-28 -28l76 -76q6 -6 0 -11l-53 -53q-5 -6 -11 0l-76 76l-28 -28q-4 -4 -9 -2q-3 1 -5 6l-25 145q0 4 3 7q2 2 7 2zM54 264q-5 2 -6 5q-2 5 2 9l28 28l-76 76q-6 6 0 11l53 53q5 6 11 0l76 -76l28 28q4 4 9 2q3 -1 5 -6 l25 -145q0 -4 -3 -7q-2 -2 -7 -2z" />
<glyph unicode="&#xf110;" horiz-adv-x="512" d="M24 90q2 6 6 7t8 -2l28 -28l76 75q6 6 12 0l52 -52q6 -6 0 -12l-76 -75l28 -29q4 -4 2 -8q-1 -3 -6 -5l-144 -25q-6 0 -8 2t-2 8zM488 294q-2 -6 -6 -7t-8 2l-28 28l-76 -75q-6 -6 -12 0l-52 52q-6 6 0 12l76 75l-28 29q-4 3 -2 8q1 3 6 5l144 25q6 0 8 -2t2 -8zM358 -40 q-6 2 -7 6q-1 5 2 8l28 28l-75 76q-6 6 0 12l52 52q6 6 12 0l75 -76l29 28q4 4 8 2q3 -1 5 -6l25 -144q0 -6 -2 -8t-8 -2zM154 424q6 -2 7 -6q1 -5 -2 -8l-28 -28l75 -76q6 -6 0 -12l-52 -52q-6 -6 -12 0l-75 76l-29 -28q-4 -4 -8 -2q-3 1 -5 6l-25 144q0 6 2 8t8 2z" />
<glyph unicode="&#xf111;" horiz-adv-x="440" d="M94 315q1 1 2.5 2t2.5 1q27 24 59 34q11 3 35 5q5 0 7 -4t-2 -8q-5 -5 -10 -6q-7 -2 -21.5 -6.5t-22.5 -7.5q-2 -1 -5 -4l-4 -4q-3 -3 -10 -8t-11 -8l-3 -3v-1q5 3 11 4q31 10 35 11q3 1 32 -2q3 0 7 -4q4 -3 11.5 -9.5t11.5 -9.5t1 -7q-7 -10 -18 -4q-3 2 -15 11 q-6 4 -9 3q-3 0 -11 -1t-11 -1t-7 -2q-5 -4 -15 -11t-15 -11q-3 -2 -3 -7q2 0 3 1q8 5 26 7q1 0 4 0.5t5 0.5q13 2 29 -10q14 -10 21 -16q6 -4 6 -13q0 -18 -3 -27v-3q4 -2 1 -13q-1 -4 -4.5 -13t-5.5 -14q-4 -11 -18 -16q-14 -4 -62 -20q-13 -5 -26 -2q-24 6 -49 -5 q-7 -3 -23 -11q-12 17 -17 41q-5 23 -2 52q0 1 3 4q20 8 31 37q2 6 5.5 18t7 21.5t8.5 17.5q33 49 40 55q9 9 23 27q4 5 8 -1q5 -8 -1 -16q-5 -7 -15.5 -20t-15.5 -19l-2 -4zM167 170q9 0 10 3q5 11 18 22q2 2 1 5q-2 4 -5 11t-5 10t-5 5q-12 8 -19 12q-4 2 -6 1 q-3 -1 -8 -3.5l-7 -3.5t-6.5 -2.5t-6.5 -2.5q-11 -4 -17 -23q-3 -9 4 -16q9 -10 17 -20q2 -2 6 -1q18 5 29 3zM346 69q-1 -1 -4.5 -3t-5.5 -4q-21 -20 -53 -30q-11 -4 -35 -6q-5 -1 -7 3.5t1 8.5q7 7 11 8q6 2 18.5 5.5t18.5 5.5q5 2 13 8q4 3 12 9.5t12 9.5q2 2 2 4 q-2 -1 -6.5 -3t-6.5 -3q-26 -9 -32 -10q-6 0 -33 2q-3 0 -7 4q-3 2 -9.5 8t-10.5 8q-13 10 3 15q6 2 11 -1q3 -2 9 -6.5t8 -5.5q4 -2 6 -2q8 0 22 2q5 0 10 3q5 4 14 10.5t14 10.5q1 0 3 7q-10 -7 -39 -9q-13 -1 -23 7q-5 3 -14.5 10t-13.5 11t-4 8q0 9 2 27q0 8 -1 9v4 q0 2 1.5 5.5t2.5 5.5q4 9 7 20q5 14 19 18q26 8 62 20q14 5 26 2q25 -7 52 6q2 1 8.5 4.5t10.5 5.5q9 -10 15 -32q7 -25 4 -61q0 -4 -7 -6q-14 -5 -21 -22q-5 -10 -11 -32q-10 -30 -19 -43q-4 -5 -10.5 -15t-9.5 -15q-3 -4 -9.5 -11.5t-9.5 -11.5l-21 -24q-5 -5 -8 1 q-4 7 2 16q5 7 15 19.5t15 18.5q1 1 1 2q1 2 1 3zM245 186q6 -16 10 -24q1 -3 4 -4q3 -2 9.5 -6t9.5 -6q4 -2 7 -1q4 1 11.5 4.5t11.5 5.5q14 5 17 14q1 3 4 13q2 8 -3 13q-7 7 -19 21q-1 1 -4 1q-20 -5 -33 -3q-6 0 -7 -3q-4 -5 -10 -14t-8 -11z" />
<glyph unicode="&#xf112;" horiz-adv-x="343" d="M338 140q7 -5 4 -12v-2h-1l-28 -49q-5 -8 -14 -3q-1 0 -2 1l-87 50v-103v0q0 -8 -9 -10h-58q-10 0 -10 10v3v100l-89 -51v0q-7 -6 -13 2l-30 51q-5 9 4 14q1 0 1 0.5t1 0.5l88 50l-90 51v1v0q-9 5 -4 13l29 49v1q5 9 14 4l89 -52v103q0 10 10 10h57v0q10 0 10 -10v-103 l90 51q8 5 13 -3l28 -49l1 -1q5 -9 -4 -14l-89 -51l89 -51v-1z" />
<glyph unicode="&#xf113;" horiz-adv-x="384" d="M384 192v-9q0 -52 -25.5 -77t-59.5 -25q-21 0 -48.5 13.5t-29.5 25.5v3q-26 -36 -65 -36q-32 0 -51 20.5t-19 54.5q0 44 31 77.5t71 33.5t56 -30l4 18q2 5 7 5h37q7 0 7 -6l-1 -2h1l-22 -101q0 -1 -0.5 -5t-0.5 -6q0 -21 17 -21q15 0 27 22t12 58q-5 54 -45 91t-95 37 q-58 0 -99.5 -41.5t-41.5 -99.5t41.5 -99.5t99.5 -41.5q30 0 53 10q1 0 3 1q3 0 5 -2l34 -21q4 -1 4 -7q0 -5 -5 -7q-44 -25 -94 -25q-80 0 -136 56t-56 136t56 136t136 56t136 -56t56 -136zM226 157l11 52q-11 23 -36 23q-26 0 -44 -19.5t-18 -45.5q0 -18 10 -29t27 -11 q29 0 50 30z" />
<glyph unicode="&#xf114;" d="M122 53h133l17 -45h-167zM136 98l52 138l53 -138h-105zM333 376q15 0 25.5 -10.5t10.5 -25.5v-296q0 -15 -10.5 -25.5t-25.5 -10.5h-3l-106 270q-4 9 -13 9h-45q-9 0 -13 -9l-106 -270h-11q-15 0 -25.5 10.5t-10.5 25.5v296q0 15 10.5 25.5t25.5 10.5h297z" />
<glyph unicode="&#xf115;" horiz-adv-x="484" d="M476 236q8 0 8 -9v-62q0 -9 -8 -9h-40v-95v0q0 -9 -9 -9h-418q-9 0 -9 9v0v262v0q0 9 9 9h418q9 0 9 -9v0v-87h40zM385 103v177h-333v-177h333z" />
<glyph unicode="&#xf116;" horiz-adv-x="484" d="M476 236q8 0 8 -9v-62q0 -9 -8 -9h-40v-95v0q0 -9 -9 -9h-418q-9 0 -9 9v0v262v0q0 9 9 9h418q9 0 9 -9v0v-87h40zM385 103v177h-333v-177h333zM78 128v129h281v-129h-281z" />
<glyph unicode="&#xf117;" horiz-adv-x="484" d="M476 236q8 0 8 -9v-62q0 -9 -8 -9h-40v-95v0q0 -9 -9 -9h-418q-9 0 -9 9v0v262v0q0 9 9 9h418q9 0 9 -9v0v-87h40zM385 103v177h-333v-177h333zM276 255l-50 -126h-149v126h199z" />
<glyph unicode="&#xf118;" horiz-adv-x="384" d="M191 253q1 0 6.5 -1.5t8.5 -2t9 -2.5t8.5 -4l7.5 -6t4.5 -7.5t-0.5 -9.5q-5 -21 -55 -9zM175 190q1 0 9 -2t13 -3.5t12.5 -5t11.5 -7t6.5 -9t0.5 -11.5q-7 -25 -64 -9zM238 378q77 -20 118 -87.5t22 -144.5q-20 -77 -87.5 -118t-144.5 -22q-77 20 -118 87.5t-22 144.5 q20 77 87.5 118t144.5 22zM277 219q5 33 -43 49l9 34l-21 6l-8 -34q-3 0 -8.5 2t-8.5 2l8 34l-21 5l-9 -34q-5 1 -13 3l-29 7l-6 -22l16 -4q9 -2 9 -13l-9 -39q1 0 1 -0.5t1 -0.5q-1 0 -1 0.5t-1 0.5l-14 -55q-2 -6 -10 -5l-15 3l-11 -24l28 -6q3 0 8 -1.5t7 -2.5l-9 -35 l21 -6l9 35q4 -2 17 -4l-9 -35l21 -5l9 35q60 -12 74 28q12 35 -19 51q23 5 27 31z" />
<glyph unicode="&#xf119;" horiz-adv-x="260" d="M213 205q52 -12 47 -67q-4 -36 -28.5 -51t-69.5 -17v-47v0q0 -7 -6 -7v0h-20v0q-6 0 -6 7v46q-4 0 -12.5 0.5t-13.5 0.5v-47v0q0 -7 -6 -7v0h-20v0q-6 0 -6 7v47h-23h-42q-6 0 -6 7v0l5 27h1q2 5 6 5v0h23q10 0 13 11v85v61q-2 14 -19 14h-24v0q-6 0 -6 6v22q0 6 6 6h45 h21v47v0q0 7 6 7v0v0h20v0q6 0 6 -7v-46q4 0 13 0.5t13 0.5v45v0q0 7 6 7v0v0h20v0q6 0 6 -7v-47q74 -7 79 -54q4 -38 -28 -55zM105 277v-64h8h11.5t12.5 0.5t13 1.5t11.5 3.5t10.5 6t6.5 8.5t2.5 12q0 8 -3 14t-9 9t-12 5.5t-15 3t-14 0.5h-13.5h-9.5zM105 109h9h11.5h12.5 t14 1t13.5 2.5t12 4.5t9 6.5t7 9t2.5 11.5q0 9 -3.5 15.5t-11 10t-14 6t-18 3.5t-16.5 1h-16h-12v-71z" />
<glyph unicode="&#xf11a;" horiz-adv-x="342" d="M91 347q0 36 36 36q37 0 37 -36q0 -37 -37 -37q-36 0 -36 37zM341 15q1 -1 1 -3q0 -6 -6 -6q-4 0 -5 3v0v1l-107 184h-3q-4 0 -8 2v0v1h-1l-35 20v0v0l-23 23v-76l45 -44l49 -85q4 -5 4 -13q0 -9 -6 -15t-15 -6q-13 0 -19 11l-47 81l-37 37l-41 -72l-49 -49q-6 -8 -17 -8 q-9 0 -15 6t-6 15q0 10 7 16l45 45l36 62v96l-19 -18v-52q0 -7 -4 -11t-11 -4q-4 0 -8 2t-6 6t-2 7v62h1h-1q0 1 2 3l54 55q10 11 27 11q18 0 28 -13l47 -47l31 -18q9 -4 9 -14q0 -6 -2 -9z" />
<glyph unicode="&#xf11b;" horiz-adv-x="239" d="M231 120q8 -6 8 -17q0 -6 -6 -14l-1 -1l-102 -102q-7 -7 -16 -7t-15 6t-6 15v0v1v124l-55 -55q-6 -7 -16 -7q-9 0 -15.5 6.5t-6.5 15.5t6 15v0l87 86v11l-86 86q-7 7 -7 15q0 9 6.5 15.5t15.5 6.5t16 -7l55 -55v119q-1 2 -1 6q0 9 6 15.5t15 6.5q11 0 17 -8l101 -101 q8 -6 8 -16q0 -6 -6 -14v0q-1 0 -1 -1t-1 -2l-72 -71zM186 103l-50 51v-101zM136 230l50 50l-50 50v-100z" />
<glyph unicode="&#xf11c;" horiz-adv-x="242" d="M186 197q24 -4 40 -24t16 -47q0 -34 -22 -56.5t-63 -22.5h-144q-13 0 -13 13v264q0 13 13 13h140q39 0 61 -21.5t22 -52.5q0 -26 -14.5 -43.5t-35.5 -22.5zM62 283v-61h77q34 0 34 30q0 14 -9 22.5t-25 8.5h-77zM142 101q37 0 37 33q0 14 -10 23.5t-27 9.5h-80v-66h80z " />
<glyph unicode="&#xf11d;" horiz-adv-x="328" d="M328 334v-327q0 -8 -8 -8v0h-312q-8 0 -8 8v0v1v65v303v1q0 8 8 8h153v-66v-84v-29q0 -4 4 -4q2 0 3 1l29 30h1q1 1 2 1q2 0 3 -1l29 -29q2 -2 3 -2q4 0 4 4v29v84v66h29h1q8 0 8 -8v-319q0 -8 -8 -8h-1h-242v-19q2 -7 8 -7h261q8 0 8 9v309h17q8 0 8 -8z" />
<glyph unicode="&#xf11e;" horiz-adv-x="328" d="M328 334v-327q0 -8 -8 -8v0h-312q-8 0 -8 8v0v1v65v303v1q0 8 8 8h260h1q8 0 8 -8v-319q0 -8 -8 -8h-1h-242v-19q2 -7 8 -7h261q8 0 8 9v309h17q8 0 8 -8zM25 326v-64q0 -8 9 -8h209q8 0 8 8v64q0 8 -8 8h-209q-9 0 -9 -8z" />
<glyph unicode="&#xf11f;" horiz-adv-x="218" d="M203 381q15 0 15 -16v-34v-235v-82q0 -11 -11 -11q-5 0 -9 4l-81 82q-3 3 -8 3q-4 0 -7 -3l-83 -83q-3 -3 -8 -3q-11 0 -11 11v82v235v34q0 16 15 16h188z" />
<glyph unicode="&#xf120;" horiz-adv-x="265" d="M0 325q0 36 36 36q35 0 35 -36q0 -35 -35 -35q-36 0 -36 35zM194 325q0 36 35 36q36 0 36 -36q0 -35 -36 -35q-35 0 -35 35zM0 192q0 36 36 36q35 0 35 -36t-35 -36q-36 0 -36 36zM194 192q0 36 35 36q36 0 36 -36t-36 -36q-35 0 -35 36zM0 59q0 36 36 36q35 0 35 -36 t-35 -36q-36 0 -36 36zM194 59q0 36 35 36q36 0 36 -36t-36 -36q-35 0 -35 36z" />
<glyph unicode="&#xf121;" horiz-adv-x="395" d="M395 192q0 -7 -6 -11l-48 -28l27 -46q3 -5 -1 -13q-3 -6 -10 -6h-54v-55h-1q0 -7 -6 -10q-8 -4 -13 -1l-47 27l-27 -47q-4 -6 -11 -6t-11 6l-27 46l-49 -28q-5 -2 -12 1t-7 10v55h-55q-7 0 -10 7t-1 12l27 48l-47 28q-6 4 -6 11t6 11l48 28l-27 46q-3 5 1 13q3 6 10 6h54 v55q0 7 7 10t12 1l48 -27l27 47q4 6 11 6t11 -6l27 -46l49 28q5 2 12 -1t7 -10v-55h55q6 0 10 -7t1 -12v-1l-27 -47l47 -28q6 -4 6 -11zM165 134l12 7l-34 59l-12 -7l21 -37l-49 21l-13 -8l34 -59l13 8l-22 38zM189 148l42 24l-7 11l-29 -17l-8 13l29 17l-6 11l-29 -17 l-7 13l29 17l-6 11l-42 -24zM286 204l13 7l-17 69l-14 -8l14 -49l-36 36l-9 -5l13 -49l-35 36l-14 -8l51 -49l13 8l-13 46z" />
<glyph unicode="&#xf122;" horiz-adv-x="395" d="M167 163l-5 31l24 -20zM395 192q0 -7 -6 -11l-48 -28l27 -46q3 -5 -1 -13q-3 -6 -10 -6h-54v-55h-1q0 -7 -6 -10q-8 -4 -13 -1l-47 27l-27 -47q-4 -6 -11 -6t-11 6l-27 46l-49 -28q-5 -2 -12 1t-7 10v55h-55q-7 0 -10 7t-1 12l27 48l-47 28q-6 4 -6 11t6 11l48 28l-27 46 q-3 5 1 13q3 6 10 6h54v55q0 7 7 10t12 1l48 -27l27 47q4 6 11 6t11 -6l27 -46l49 28q5 2 12 -1t7 -10v-55h55q6 0 10 -7t1 -12v-1l-27 -47l47 -28q6 -4 6 -11zM134 114q23 13 12 33q-8 13 -27 7.5t-21 -2.5q-3 6 5 11q11 6 21 3l1 14q-13 3 -27 -5q-23 -13 -12 -31 q7 -13 26.5 -7.5t21.5 1.5q4 -6 -6 -12q-11 -7 -24 -3l-1 -14q17 -4 31 5zM205 157l14 8l-57 46l-15 -9l11 -72l14 8l-2 12l25 15zM224 168l38 22l-7 11l-25 -15l-27 48l-13 -7zM270 195l42 24l-6 11l-29 -17l-8 13l28 17l-6 11l-29 -17l-7 13l29 17l-6 11l-42 -24z" />
<glyph unicode="&#xf123;" horiz-adv-x="395" d="M395 192q0 -7 -6 -11l-48 -28l27 -46q3 -5 -1 -13q-3 -6 -10 -6h-54v-55h-1q0 -7 -6 -10q-8 -4 -13 -1l-47 27l-27 -47q-4 -6 -11 -6t-11 6l-27 46l-49 -28q-5 -2 -12 1t-7 10v55h-55q-7 0 -10 7t-1 12l27 48l-47 28q-6 4 -6 11t6 11l48 28l-27 46q-3 5 1 13q3 6 10 6h54 v55q0 7 7 10t12 1l48 -27l27 47q4 6 11 6t11 -6l27 -46l49 28q5 2 12 -1t7 -10v-55h55q6 0 10 -7t1 -12v-1l-27 -47l47 -28q6 -4 6 -11z" />
<glyph unicode="&#xf124;" horiz-adv-x="326" d="M320 246q6 0 6 -7v-225q0 -6 -6 -6h-314q-6 0 -6 6v225q0 7 6 7h314zM109 55q25 0 40.5 12t15.5 32q0 21 -25 31q21 10 21 31q0 13 -12 21.5t-32 8.5q-23 0 -37 -7q-2 -2 -2 -3l3 -22q0 -2 2 -2h3q12 6 24 6q15 0 15 -9q0 -11 -24 -13q-3 0 -3 -3v-22q0 -3 3 -3 q30 -1 30 -16q0 -13 -20 -13q-17 0 -29 5h-3q-1 -1 -1 -2l-3 -22q0 -2 2 -4q14 -6 32 -6zM245 61v125q0 3 -3 3h-13h-2l-38 -19q-2 -2 -2 -3l3 -22q0 -3 2 -3h3l17 7v-88q0 -4 3 -4h27q3 0 3 4zM320 347q6 0 6 -6v-66q0 -7 -6 -7h-314q-6 0 -6 7v66q0 6 6 6h34v-16 q0 -34 36 -34t36 34v16h102v-16q0 -34 36 -34t36 34v16h34zM76 318q-15 0 -15 13v16v16q0 13 15 13t15 -13v-16v-16q0 -13 -15 -13zM250 318q-15 0 -15 13v16v16q0 13 15 13t15 -13v-16v-16q0 -13 -15 -13z" />
<glyph unicode="&#xf125;" horiz-adv-x="415" d="M159 175q0 49 49 49q48 0 48 -49q0 -48 -48 -48q-49 0 -49 48zM396 324q8 0 13 -5q6 -6 6 -14v-259q0 -8 -6 -14q-5 -5 -13 -5v-1h-377v1q-8 0 -13 5q-6 6 -6 14v259q0 8 6 14q5 5 13 5h85v15q0 7 6 13t13 6h168q8 0 14 -6q5 -5 5 -13v-15h86zM209 77q27 0 49 13 q22 14 36 36q13 22 13 49q0 41 -29 70t-69 29q-41 0 -70 -29t-29 -70q0 -40 29 -69t70 -29zM389 248v51h-75v-51h75z" />
<glyph unicode="&#xf126;" horiz-adv-x="397" d="M393 293q9 -9 0 -18l-250 -250q-4 -4 -9 -4v1l-1 -1q-4 0 -8 4l-121 121q-4 4 -4 9t4 9l66 66q8 8 17 0l47 -47l176 176q4 4 8 4q5 0 9 -4z" />
<glyph unicode="&#xf127;" horiz-adv-x="381" d="M379 323q5 -5 0 -11l-209 -209q-3 -3 -6 -3v0q-3 0 -6 3l-81 80q-3 3 -3 6t3 6l44 44q6 6 12 0l31 -31l159 160q2 2 6 2t6 -2zM277 173l51 52v-185q0 -10 -8 -18t-18 -8h-1v0h-275v0v0q-10 0 -18 8t-8 18v276q0 10 8 18t18 8h1h234l-51 -51h-159v-226h226v108z" />
<glyph unicode="&#xf128;" horiz-adv-x="315" d="M315 360v-362v0q0 -11 -8 -19t-19 -8h-1h-259h-1q-11 0 -19 8t-8 19v0v362v0q0 11 8 19t19 8h75v17v1q0 8 8 8v0h95q8 0 8 -8v0v-18h75q11 0 19 -8t8 -19v0zM264 22v314h-25v-16q0 -9 -10 -9h-143v0q-10 0 -10 9v1v15h-25v-314h213zM102 237v0v-13v0q0 -6 -6 -6h-1h-12 q-7 0 -7 6v0v13q0 7 7 7h12v-1l1 1q6 0 6 -7zM239 237v0v-13v0q0 -6 -7 -6h-98q-7 0 -7 6v0v13q0 7 7 7h98q7 0 7 -7zM102 186v0v-13v0q0 -6 -6 -6h-1h-12q-7 0 -7 6v0v13q0 7 7 7h12v-1l1 1q6 0 6 -7zM239 186v0v-13v0q0 -6 -7 -6h-98q-7 0 -7 6v0v13q0 7 7 7h98q7 0 7 -7z M102 135v0v-13v0q0 -6 -6 -6h-1h-12q-7 0 -7 6v0v13q0 6 7 6h12h1q6 0 6 -6zM239 135v0v-13v0q0 -6 -7 -6h-98q-7 0 -7 6v0v13q0 6 7 6h98q7 0 7 -6z" />
<glyph unicode="&#xf129;" horiz-adv-x="392" d="M391 228q1 -2 1 -5t-1 -4l-116 -116v0l-59 -16q-3 -2 -7 2q-3 3 -1 6l16 59v0l115 116q5 4 9 0zM227 107l35 9l-25 26zM309 73q6 0 6 -6v0v-69v0q0 -11 -8 -19t-19 -8h-1h-259h-1q-11 0 -19 8t-8 19v0v362v0q0 11 8 19t19 8h75v17v1q0 8 8 8v0h95q8 0 8 -8v0v-18h75 q11 0 19 -8t8 -19v0v-68q0 -7 -6 -7h-39q-6 0 -6 7v44h-25v-16q0 -9 -10 -9h-143v0q-10 0 -10 9v1v15h-25v-314h213v45q0 6 6 6v0h39z" />
<glyph unicode="&#xf12a;" horiz-adv-x="315" d="M315 360v-362v0q0 -11 -8 -19t-19 -8h-1h-259h-1q-11 0 -19 8t-8 19v0v362v0q0 11 8 19t19 8h75v17v1q0 8 8 8v0h95q8 0 8 -8v0v-18h75q11 0 19 -8t8 -19v0zM264 22v314h-25v-16q0 -9 -10 -9h-143v0q-10 0 -10 9v1v15h-25v-314h213z" />
<glyph unicode="&#xf12b;" horiz-adv-x="384" d="M192 333q-58 0 -99.5 -41.5t-41.5 -99.5t41.5 -99.5t99.5 -41.5t99.5 41.5t41.5 99.5t-41.5 99.5t-99.5 41.5zM192 384q80 0 136 -56t56 -136t-56 -136t-136 -56t-136 56t-56 136t56 136t136 56zM290 263q7 -7 0 -14l-91 -91q-3 -3 -7 -3t-7 3l-62 62q-3 3 -3 7q0 5 3 8 l20 20q7 7 14 0l35 -36l64 64q7 7 14 0z" />
<glyph unicode="&#xf12c;" horiz-adv-x="342" d="M333 300q9 -2 9 -11v-94v-6v-94q0 -9 -9 -11l-160 -32h-4l-160 32q-9 2 -9 11v94v6v94q0 9 9 11l160 32h4zM149 150q2 4 0 7t-5 5l-19 8q-3 2 -6 0t-5 -5q-7 -14 -17 -14q-11 0 -17.5 11.5t-6.5 29.5t6.5 29.5t17.5 11.5t17 -13q4 -8 12 -4l18 8q3 2 5 5q1 2 -1 6 q-17 35 -51 35q-29 0 -46.5 -21.5t-17.5 -56.5t17.5 -56.5t46.5 -21.5q35 0 52 36zM308 150q2 4 0 7t-5 5l-18 8q-3 2 -7 0q-3 -2 -5 -5q-7 -14 -16 -14q-11 0 -18 11.5t-7 29.5t7 29.5t18 11.5t17 -13q4 -8 11 -4l18 8q3 2 5 5q1 2 -1 6q-17 35 -50 35q-29 0 -47 -21.5 t-18 -56.5t18 -56.5t47 -21.5q35 0 51 36z" />
<glyph unicode="&#xf12d;" horiz-adv-x="473" d="M387 206q34 4 60 -21.5t26 -62.5q0 -26 -16 -50q-5 -7 -12 -7h-414q-8 0 -13 8q-18 30 -18 66q0 50 32 85.5t78 35.5q11 0 23 -3q43 62 115 62q48 0 86.5 -31.5t52.5 -81.5z" />
<glyph unicode="&#xf12e;" horiz-adv-x="470" d="M302 166h92v-93q-4 -14 -17 -14h-225l-44 -44q-5 -8 -15 -8q-17 0 -17 17v35h-59q-13 0 -17 14v288q2 16 17 16h360q15 0 17 -16v-91h-92q-9 0 -9 -9v-86q0 -9 9 -9zM461 245q9 0 9 -9v-36q0 -8 -9 -8h-133q-9 0 -9 8v36q0 9 9 9h133z" />
<glyph unicode="&#xf12f;" horiz-adv-x="394" d="M394 361v-288q-4 -14 -17 -14h-225l-44 -44q-5 -8 -15 -8q-17 0 -17 17v35h-59q-13 0 -17 14v288q2 16 17 16h360q15 0 17 -16zM87 189q11 0 18.5 7.5t7.5 18.5q0 10 -6.5 17t-16.5 7q-5 0 -6 -1q5 21 24 31h1q2 2 2 3t-2 3l-14 9q-1 0 -1 0.5t-1 0.5t-1 -0.5t-1 -0.5 q-34 -24 -34 -61q0 -16 8.5 -25t21.5 -9zM154 189q11 0 19 8t8 18t-6.5 17t-16.5 7q-6 0 -7 -1q5 20 25 31v0q2 2 2 3q0 2 -1 3l-14 9q-1 0 -1 0.5t-1 0.5t-1 -0.5t-1 -0.5q-34 -24 -34 -61q0 -16 8 -25t21 -9zM235 152q35 25 35 62q0 16 -8.5 25t-21.5 9q-10 0 -18 -8 t-8 -19t6 -17.5t16 -6.5q6 0 7 1q-5 -20 -25 -31v0q-2 -2 -2 -3t2 -3h-1l14 -9h1l2 -1v1h1zM303 152q34 24 34 62q0 16 -8 25t-21 9q-10 0 -18.5 -8t-8.5 -19q0 -10 6.5 -17t16.5 -7q6 0 7 1q-5 -20 -25 -31v0q-2 -2 -2 -3q0 -2 1 -3l14 -9q1 0 1 -0.5t1 -0.5t1 0.5t1 0.5z " />
<glyph unicode="&#xf130;" horiz-adv-x="394" d="M394 361v-288q-4 -14 -17 -14h-225l-44 -44q-5 -8 -15 -8q-17 0 -17 17v35h-59q-13 0 -17 14v288q2 16 17 16h360q15 0 17 -16zM305 155v124l-65 -30v28q0 12 -13 12h-110q-12 0 -12 -12v-120q0 -12 12 -12h110q13 0 13 12v29z" />
<glyph unicode="&#xf131;" horiz-adv-x="394" d="M394 361v-288q-4 -14 -17 -14h-225l-44 -44q-5 -8 -15 -8q-17 0 -17 17v35h-59q-13 0 -17 14v288q2 16 17 16h360q15 0 17 -16z" />
<glyph unicode="&#xf132;" horiz-adv-x="461" d="M461 357v-217q-2 -11 -13 -11h-44v-26q0 -13 -13 -13q-7 0 -11 6l-33 33h-57v150q-2 10 -11 10h-115v68q2 11 13 11h271q11 0 13 -11zM253 264q10 0 12 -11v-193h-1q-2 -10 -11 -10h-151l-30 -29q-3 -5 -9 -5q-12 0 -12 11v23h-40q-9 0 -11 10v193q2 11 11 11h242z" />
<glyph unicode="&#xf133;" horiz-adv-x="384" d="M192 384q80 0 136 -56t56 -136t-56 -136t-136 -56t-136 56t-56 136t56 136t136 56zM192 51q58 0 99.5 41.5t41.5 99.5t-41.5 99.5t-99.5 41.5t-99.5 -41.5t-41.5 -99.5t41.5 -99.5t99.5 -41.5zM267 281q7 3 12 -2t2 -12l-60 -100l-3 -3l-101 -61q-2 -1 -5 -1q-4 0 -7 3 q-5 5 -2 12l61 101l3 3z" />
<glyph unicode="&#xf134;" horiz-adv-x="384" d="M192 384q80 0 136 -56t56 -136t-56 -136t-136 -56t-136 56t-56 136t56 136t136 56zM193 333v-282q58 0 99 41t41 100t-41 100t-99 41z" />
<glyph unicode="&#xf135;" horiz-adv-x="378" d="M378 314v-1v-37h-378v36v2q0 13 14 13h1h349h1q13 0 13 -13zM0 70v155h378v-155q0 -13 -13 -13h-350h-1q-14 0 -14 13v0z" />
<glyph unicode="&#xf136;" horiz-adv-x="419" d="M405 84q14 0 14 -14v-23q0 -14 -14 -14h-37v-36q0 -14 -14 -14h-23q-14 0 -14 14v36h-241q-10 0 -17.5 7.5t-7.5 17.5v1v241h-37q-14 0 -14 14v23q0 14 14 14h37v36q0 14 14 14h23q14 0 14 -14v-36h241q10 0 17.5 -7.5t7.5 -17.5v-1v-241h37zM102 84h215v216h-215v-216z " />
<glyph unicode="&#xf137;" horiz-adv-x="348" d="M348 38v-19v0q0 -16 -15 -16h-317q-16 0 -16 16v0v19q0 16 16 16h317q15 0 15 -16zM44 251q0 -1 1 -1h1l34 -35l82 81q5 5 12 5t12 -5l82 -81l35 35q0 2 1 2h1q6 4 10 4q7 0 12 -5t5 -12v-3v-145v0v-2q-2 -14 -17 -14v-1h-282v0q-14 0 -16 15h-1v150h1q0 16 16 16 q7 0 11 -4v0zM292 208h-1h1zM2 309q0 31 31 31q30 0 30 -31t-30 -31q-31 0 -31 31zM283 309q0 31 31 31t31 -31t-31 -31t-31 31zM145 350q0 31 31 31t31 -31t-31 -31t-31 31z" />
<glyph unicode="&#xf138;" horiz-adv-x="325" d="M0 375h325l-30 -330l-132 -36l-133 36zM260 268l4 40h-102h-103l5 -40h98h6l-6 -2l-94 -40l3 -39h91h49l-3 -52l-46 -13v0l-44 11l-3 32h-41l5 -62l83 -25h1l82 25l11 123h-94v0z" />
<glyph unicode="&#xf139;" horiz-adv-x="422" d="M124 323v-262v0q0 -9 -7 -15.5t-16 -6.5h-80v1q-9 0 -15 6t-6 15v262q0 9 6 15.5t15 6.5h80q9 0 15.5 -6.5t6.5 -15.5h1zM62 65q14 0 23 9.5t9 22.5t-9 22.5t-23 9.5t-23 -9.5t-9 -22.5t9 -22.5t23 -9.5zM98 180v139h-72v-139h72zM273 323v-262v0q0 -9 -6.5 -15.5 t-15.5 -6.5h-81v1q-9 0 -15 6t-6 15v262q0 9 6 15.5t15 6.5h81q9 0 15.5 -6.5t6.5 -15.5zM211 65q13 0 22.5 9.5t9.5 22.5t-9.5 22.5t-22.5 9.5t-22.5 -9.5t-9.5 -22.5t9.5 -22.5t22.5 -9.5zM247 180v139h-72v-139h72zM422 323v-262v0q0 -9 -6.5 -15.5t-15.5 -6.5h-81v1 q-9 0 -15 6t-6 15v262q0 9 6 15.5t15 6.5h81q9 0 15.5 -6.5t6.5 -15.5zM360 65q14 0 23 9.5t9 22.5t-9 22.5t-23 9.5t-23 -9.5t-9 -22.5t9 -22.5t23 -9.5zM396 180v139h-72v-139h72z" />
<glyph unicode="&#xf13a;" horiz-adv-x="348" d="M348 329v-274q0 -15 -11 -26t-26 -11h-274q-15 0 -26 11t-11 26v274q0 15 11 26t26 11h274q15 -1 26 -11.5t11 -25.5zM87 71q15 0 25.5 10.5t10.5 25.5t-10.5 25.5t-25.5 10.5t-25.5 -10.5t-10.5 -25.5t10.5 -25.5t25.5 -10.5zM87 243q15 0 25.5 10.5t10.5 25.5 t-10.5 25.5t-25.5 10.5t-25.5 -10.5t-10.5 -25.5t10.5 -25.5t25.5 -10.5zM174 156q15 0 25.5 10.5t10.5 25.5t-10.5 25.5t-25.5 10.5t-25.5 -10.5t-10.5 -25.5t10.5 -25.5t25.5 -10.5zM261 69q15 0 25.5 10.5t10.5 25.5t-10.5 25.5t-25.5 10.5t-25.5 -10.5t-10.5 -25.5 t10.5 -25.5t25.5 -10.5zM261 243q15 0 25.5 10.5t10.5 25.5t-10.5 25.5t-25.5 10.5t-25.5 -10.5t-10.5 -25.5t10.5 -25.5t25.5 -10.5z" />
<glyph unicode="&#xf13b;" horiz-adv-x="348" d="M348 329v-274q0 -15 -11 -26t-26 -11h-274q-15 0 -26 11t-11 26v274q0 15 11 26t26 11h274q15 -1 26 -11.5t11 -25.5zM87 71q15 0 25.5 10.5t10.5 25.5t-10.5 25.5t-25.5 10.5t-25.5 -10.5t-10.5 -25.5t10.5 -25.5t25.5 -10.5zM87 243q15 0 25.5 10.5t10.5 25.5 t-10.5 25.5t-25.5 10.5t-25.5 -10.5t-10.5 -25.5t10.5 -25.5t25.5 -10.5zM261 69q15 0 25.5 10.5t10.5 25.5t-10.5 25.5t-25.5 10.5t-25.5 -10.5t-10.5 -25.5t10.5 -25.5t25.5 -10.5zM261 243q15 0 25.5 10.5t10.5 25.5t-10.5 25.5t-25.5 10.5t-25.5 -10.5t-10.5 -25.5 t10.5 -25.5t25.5 -10.5z" />
<glyph unicode="&#xf13c;" horiz-adv-x="348" d="M348 329v-274q0 -15 -11 -26t-26 -11h-274q-15 0 -26 11t-11 26v274q0 15 11 26t26 11h274q15 -1 26 -11.5t11 -25.5zM174 153q16 0 27.5 11.5t11.5 27.5t-11.5 27.5t-27.5 11.5t-27.5 -11.5t-11.5 -27.5t11.5 -27.5t27.5 -11.5z" />
<glyph unicode="&#xf13d;" horiz-adv-x="348" d="M348 329v-274q0 -15 -11 -26t-26 -11h-274q-15 0 -26 11t-11 26v274q0 15 11 26t26 11h274q15 -1 26 -11.5t11 -25.5zM87 71q15 0 25.5 10.5t10.5 25.5t-10.5 25.5t-25.5 10.5t-25.5 -10.5t-10.5 -25.5t10.5 -25.5t25.5 -10.5zM87 156q15 0 25.5 10.5t10.5 25.5 t-10.5 25.5t-25.5 10.5t-25.5 -10.5t-10.5 -25.5t10.5 -25.5t25.5 -10.5zM87 243q15 0 25.5 10.5t10.5 25.5t-10.5 25.5t-25.5 10.5t-25.5 -10.5t-10.5 -25.5t10.5 -25.5t25.5 -10.5zM261 69q15 0 25.5 10.5t10.5 25.5t-10.5 25.5t-25.5 10.5t-25.5 -10.5t-10.5 -25.5 t10.5 -25.5t25.5 -10.5zM261 156q15 0 25.5 10.5t10.5 25.5t-10.5 25.5t-25.5 10.5t-25.5 -10.5t-10.5 -25.5t10.5 -25.5t25.5 -10.5zM261 243q15 0 25.5 10.5t10.5 25.5t-10.5 25.5t-25.5 10.5t-25.5 -10.5t-10.5 -25.5t10.5 -25.5t25.5 -10.5z" />
<glyph unicode="&#xf13e;" horiz-adv-x="348" d="M348 329v-274q0 -15 -11 -26t-26 -11h-274q-15 0 -26 11t-11 26v274q0 15 11 26t26 11h274q15 -1 26 -11.5t11 -25.5zM87 243q15 0 25.5 10.5t10.5 25.5t-10.5 25.5t-25.5 10.5t-25.5 -10.5t-10.5 -25.5t10.5 -25.5t25.5 -10.5zM174 156q15 0 25.5 10.5t10.5 25.5 t-10.5 25.5t-25.5 10.5t-25.5 -10.5t-10.5 -25.5t10.5 -25.5t25.5 -10.5zM261 69q15 0 25.5 10.5t10.5 25.5t-10.5 25.5t-25.5 10.5t-25.5 -10.5t-10.5 -25.5t10.5 -25.5t25.5 -10.5z" />
<glyph unicode="&#xf13f;" horiz-adv-x="348" d="M348 329v-274q0 -15 -11 -26t-26 -11h-274q-15 0 -26 11t-11 26v274q0 15 11 26t26 11h274q15 -1 26 -11.5t11 -25.5zM87 243q15 0 25.5 10.5t10.5 25.5t-10.5 25.5t-25.5 10.5t-25.5 -10.5t-10.5 -25.5t10.5 -25.5t25.5 -10.5zM261 69q15 0 25.5 10.5t10.5 25.5 t-10.5 25.5t-25.5 10.5t-25.5 -10.5t-10.5 -25.5t10.5 -25.5t25.5 -10.5z" />
<glyph unicode="&#xf140;" horiz-adv-x="333" d="M333 295v-144q0 -13 -12 -13h-71v-58v-1v-17q0 -12 -8.5 -20.5t-20.5 -8.5q-18 0 -26 15l-50 86v0v1l-3 3h-51h-1q-13 0 -13 13v0v144v43v1v0q0 12 13 12h1h185q4 0 5 -1l50 -50q2 -2 2 -5zM51 316v-138v-2q0 -13 -13 -13v0v0h-25q-11 0 -13 12v141q0 12 13 12h24l1 1 q13 0 13 -13v0z" />
<glyph unicode="&#xf141;" horiz-adv-x="447" d="M447 294v-204v0q0 -8 -6 -14t-14 -6v0h-407q-8 0 -14 6t-6 14v0v204q0 8 6 14t14 6h407v0q8 0 14 -6t6 -14zM371 266v0q0 -4 4 -4v0h21v-21q0 -4 4 -4h17h1q4 0 4 4v43q0 4 -4 4h-1h-42v0q-4 0 -4 -4v-18zM77 118v0q0 4 -4 4h-1h-21v21q0 4 -4 4h-17v0q-4 0 -4 -4v-43 q0 -4 4 -4v0h42h1q4 0 4 4v18zM77 284v0q0 4 -4 4h-43q-4 0 -4 -4v0v-43v0q0 -4 4 -4h17v0q4 0 4 4v0v21h22q4 0 4 5v17zM224 96q40 0 68 28t28 68t-28 68t-68 28t-68 -28t-28 -68t28 -68t68 -28zM422 143v0q0 4 -4 4h-18q-4 0 -4 -4v0v-21h-21q-4 0 -4 -5v-17v0q0 -4 4 -4 h43q4 0 4 4v0v43zM224 263q29 0 49.5 -21t20.5 -50q0 -24 -12 -40q0 6 -4 8l-28 13l-12 6q7 4 12 14q3 7 3 16q0 6 -1 9q-7 25 -28 25q-22 0 -29 -24q-1 -3 -1 -10t4 -17q5 -10 12 -14l-11 -5l-29 -13q-4 -1 -4 -8q-13 18 -13 40q0 29 21 50t50 21z" />
<glyph unicode="&#xf142;" horiz-adv-x="209" d="M126 219q24 -6 39.5 -13t29.5 -23.5t14 -40.5q0 -32 -21.5 -53.5t-61.5 -25.5v-28q0 -6 -6 -6h-23q-6 0 -6 6v28q-54 4 -89 39q-2 2 -2 5q0 2 1 3l22 32q1 3 5 3q2 0 3 -1l1 -1q27 -27 59 -32v58q-37 8 -59 25t-22 51q0 29 22 50t59 25v29q0 6 6 6h23q6 0 6 -6v-30 q47 -5 77 -33q2 -2 2 -4t-2 -4l-21 -31h-1q-2 -2 -4 -2q-3 0 -4 1q-21 18 -47 24v-51zM91 227v46q-26 -3 -26 -24q0 -13 26 -22zM126 111q29 6 29 26q0 15 -29 24v-50z" />
<glyph unicode="&#xf143;" horiz-adv-x="404" d="M379 194q11 0 18 -7t7 -18v-144q0 -11 -7 -18t-18 -7h-354q-11 0 -18 7t-7 18v144q0 11 7 18t18 7h90q19 0 24 -17q7 -21 24 -33.5t39 -12.5t39 12.5t24 33.5q5 17 24 17h90zM197 181l-70 98q-2 5 -1 7q2 3 6 3h33v88q0 7 7 7h60q7 0 7 -7v-88h33q4 0 6 -3q1 -2 -1 -7 l-69 -98q-2 -3 -6 -3t-5 3z" />
<glyph unicode="&#xf144;" horiz-adv-x="382" d="M13 141q-13 0 -13 13q0 5 4 9l176 177q3 5 11 5q6 0 9 -5l178 -177q4 -3 4 -9q0 -13 -12 -13h-357zM382 52q0 -13 -13 -13h-357q-12 2 -12 13v1v49q0 11 12 13l357 1q13 0 13 -13v0v-51z" />
<glyph unicode="&#xf145;" horiz-adv-x="493" d="M389 393q13 0 13 -13v-376q0 -13 -13 -13v0h-376v0v0q-13 0 -13 13v376q0 13 13 13h376v0zM51 341v-298h299v298h-299zM490 120q2 0 3 -1t-1 -3l-31 -44l-2 -2q-1 0 -3 2l-31 44q-2 2 -1 3t3 1h15v40q0 3 3 3h27q3 0 3 -3v-40h15zM427 264q-2 0 -3 1t1 3l31 44q2 2 3 2 l2 -2l32 -44q1 -2 0 -3t-3 -1h-15v-40q0 -3 -3 -3h-27q-3 0 -3 3v40h-15zM109 284q0 26 25 26t25 -26q0 -25 -25 -25t-25 25zM182 252q11 -2 11 -12v-72q0 -4 -3 -7q-8 -8 -16 0q-3 3 -3 7v50q0 4 -3 4q-4 0 -4 -4v-32v-33v-66q0 -13 -12 -13q-13 0 -13 13v66q0 4 -3 4 q-4 0 -4 -4v-66q0 -13 -12 -13q-13 0 -13 13v99v32v0q0 4 -3 4t-3 -4v0v-50q0 -3 -4 -7q-7 -7 -15 0q-3 3 -3 7v72q0 12 12 12h91zM238 284q0 26 26 26q25 0 25 -26q0 -25 -25 -25q-26 0 -26 25zM312 252q10 -2 10 -12v-72q0 -4 -3 -7q-7 -7 -15 0q-3 3 -3 7v50q0 4 -3 4 q-4 0 -4 -4v-32v-33v-66q0 -13 -12 -13q-13 0 -13 13v66q0 4 -3 4q-4 0 -4 -4v-66q0 -13 -12 -13q-13 0 -13 13v99v32v0q0 4 -3 4q-4 0 -4 -4v0v-50q0 -4 -3 -7q-7 -7 -15 0q-3 3 -3 7v72q0 12 12 12h91z" />
<glyph unicode="&#xf146;" horiz-adv-x="283" d="M280 125q4 -3 2 -8v0v0q-37 -67 -115 -67q-51 0 -88.5 26.5t-51.5 71.5h-21v-1q-6 0 -6 6v21q0 6 6 6h15v12v13h-15q-6 0 -6 6v21q0 6 6 6h21q14 44 52 70t88 26q78 0 115 -67v0v0q2 -5 -2 -8h-1l-40 -19q-5 -2 -7 2q-22 40 -65 40q-52 0 -75 -44h100q6 0 6 -6v-21 q0 -6 -6 -6v0v0h-110q-1 -5 -1 -13v-12h111q6 0 6 -6v-21q0 -6 -6 -6h-101q23 -45 76 -45q43 0 64 39l1 1q2 4 7 2l40 -19h1z" />
<glyph unicode="&#xf147;" horiz-adv-x="365" d="M359 204q6 -3 6 -11q0 -6 -4 -10v0l-1 -1l-79 -79q-39 -44 -99 -44q-51 0 -90 36v-1l-87 87q-5 5 -5 11t3 9l80 79q40 45 99 45q52 0 91 -36v1zM182 102q38 0 64 26t26 64t-26 64t-64 26t-64 -26t-26 -64t26 -64t64 -26zM139 192q0 43 43 43q44 0 44 -43q0 -44 -44 -44 q-43 0 -43 44z" />
<glyph unicode="&#xf148;" horiz-adv-x="372" d="M372 192q0 -4 -4 -7v-1l-192 -111q-2 -2 -7 -2q-8 0 -8 8v78l-146 -84q-2 -2 -6 -2q-9 0 -9 8v226q0 8 9 8q4 0 6 -2l146 -84v78q0 8 8 8q5 0 7 -2l191 -111q5 -2 5 -8z" />
<glyph unicode="&#xf149;" horiz-adv-x="268" d="M229 163q-29 -29 -70 -37v-41h28q4 0 6 -2t2 -6v-35q0 -8 -8 -8h-28v-34q0 -8 -8 -8h-35v0h-2q-6 2 -6 8v34h-27q-8 0 -8 8v35q0 4 2 6t6 2h27v41q-40 8 -69 37q-39 39 -39 95t39 95t95 39t95 -39t39 -95t-39 -95zM134 175q34 0 58.5 24.5t24.5 58.5t-24.5 58.5 t-58.5 24.5t-58.5 -24.5t-24.5 -58.5t24.5 -58.5t58.5 -24.5z" />
<glyph unicode="&#xf14a;" horiz-adv-x="227" d="M68 345q0 42 42 42t42 -42t-42 -42t-42 42zM227 171v-3q0 -4 -3 -9q-2 -4 -6 -6q-4 -3 -9 -3q-13 0 -17 12l-20 76q-2 5 -6 5q-5 0 -5 -6v-2l32 -122q1 -1 1 -3l1 -1h-1h1q0 -10 -10 -10h-24v-81q0 -6 -3 -10q-3 -5 -8 -8q-4 -3 -10 -3q-8 0 -15 7q-6 6 -6 14v81h-12v-81 q0 -8 -6 -14q-7 -7 -14 -7q-8 0 -15 7q-6 6 -6 14v81h-24q-10 0 -10 10v0v1q0 2 1 3l33 123v1v0v1q-2 5 -5 5q-4 0 -6 -5v0l-20 -76h-1q-5 -12 -16 -12q-7 0 -13 6q-5 5 -5 12v3l28 105l1 2q4 13 18 13v1h132v-1q15 0 19 -13l1 -2z" />
<glyph unicode="&#xf14b;" horiz-adv-x="410" d="M410 334q0 -16 -11 -25l-156 -155v-118v-2q0 -17 -17 -17q-3 0 -9 2v0l-1 1l-40 23q-9 5 -9 15v0v96l-155 154q-12 9 -12 26q0 14 10 23.5t23 9.5h2h343q14 -1 23 -10.5t9 -22.5zM114 301z" />
<glyph unicode="&#xf14c;" horiz-adv-x="411" d="M100 308v45v1q0 12 13 12v0h185q12 0 12 -12v-47h-31v27h-148v-26h-31zM76 18v262h259v-262h-259zM128 167v-37q0 -1 1 -2t3 -1h52v-53q0 -2 1 -3t3 -1h37q1 0 2 1q2 2 2 3v53h52q2 0 3 1t1 2v37q0 4 -4 4h-52v52q0 4 -4 4h-37q-4 0 -4 -4v-52h-52q-4 0 -4 -4zM20 280h31 v-262h-31q-8 0 -14 6t-6 14v1v220q0 8 6 14.5t14 6.5zM411 38q0 -8 -6 -14t-14 -6v0h-31v262h31q8 0 14 -6t6 -14v-222z" />
<glyph unicode="&#xf14d;" horiz-adv-x="372" d="M364 325q8 0 8 -8v-169q0 -4 -3 -6q-34 -36 -84 -36q-46 0 -79 31q-38 45 -96 45q-31 0 -56 -13v-145q0 -11 -8 -19t-19 -8t-19 8t-8 19v322q0 11 8 19t19 8q17 0 24 -15q32 29 77 29q47 0 80 -31q38 -45 95 -45q32 0 58 14h3z" />
<glyph unicode="&#xf14e;" horiz-adv-x="425" d="M397 325q11 0 19.5 -8.5t8.5 -19.5v-248q0 -11 -8.5 -19.5t-19.5 -8.5h-369q-11 0 -19.5 8.5t-8.5 19.5v248q0 11 8.5 19.5t19.5 8.5h30l26 32q4 6 13 6h74q9 0 15 -10q3 -4 23 -28h188zM374 124v31q0 4 -3 4h-45v45q0 3 -4 3h-31q-4 0 -4 -3v-45h-45q-3 0 -3 -4v-31 q0 -1 1 -2t2 -1h45v-45q0 -2 1 -3t3 -1h31q2 0 3 1t1 3v45h45q1 0 2 1t1 2z" />
<glyph unicode="&#xf14f;" horiz-adv-x="425" d="M312 181q7 0 12 -5t5 -12v0v-15h-34v15q0 7 5 12t12 5zM397 325q11 0 19.5 -8.5t8.5 -19.5v-248q0 -11 -8.5 -19.5t-19.5 -8.5h-369q-11 0 -19.5 8.5t-8.5 19.5v248q0 11 8.5 19.5t19.5 8.5h30l26 32q4 6 13 6h74q9 0 15 -10q3 -4 23 -28h188zM374 77v67q0 5 -5 5h-6h-9 v15q0 17 -12.5 29.5t-29.5 12.5t-29 -12.5t-12 -29.5v-15h-8h-6q-5 0 -5 -5v-67q0 -5 5 -5h112q5 0 5 5z" />
<glyph unicode="&#xf150;" horiz-adv-x="425" d="M397 325q11 0 19.5 -8.5t8.5 -19.5v-248q0 -11 -8.5 -19.5t-19.5 -8.5h-369q-11 0 -19.5 8.5t-8.5 19.5v248q0 11 8.5 19.5t19.5 8.5h30l26 32q4 6 13 6h74q9 0 15 -10q3 -4 23 -28h188z" />
<glyph unicode="&#xf151;" horiz-adv-x="264" d="M0 264q0 22 22 22t22 -22t-22 -22t-22 22zM168 368q0 45 45 45t45 -45q0 -44 -45 -44t-45 44zM92 354q0 28 28 28t28 -28t-28 -28t-28 28zM249 69q13 -16 13 -38q0 -26 -17 -43t-43 -17q-21 0 -35 11q-16 13 -22 30l-76 131l1 1q-8 14 -11 25q-5 18 -5 33q0 43 31 74 t74 31q28 0 53 -14q23 -13 38 -39q14 -25 14 -52q0 -34 -17 -59q-9 -16 -9 -35q0 -22 11 -39zM39 311q0 23 22 23t22 -23q0 -22 -22 -22t-22 22z" />
<glyph unicode="&#xf152;" horiz-adv-x="356" d="M325 59q1 0 1 -2v-1l-6 -12q0 -1 -2 -1h-1l-16 8q-1 0 -1 2v1h1l6 12q2 2 3 1zM325 328q1 0 1 -2v-1l-7 -11q0 -2 -1 -2l-2 1l-15 9q-1 0 -1 1v2l7 11q2 2 3 1zM295 75q2 -2 1 -3l-7 -12q0 -1 -2 -1h-1l-4 3l-5 2l-62 -34v0q-1 -1 -5 -1q-3 0 -4 1v0l-63 34l-62 -34h-1 q-1 -1 -4 -1t-4 1h-1l-67 37q-4 1 -4 6v274q0 5 5 7q3 1 9 -1l62 -34l62 34h1v1h2h2h2h2l1 -1l62 -34l62 34q4 4 9 1l7 -5l7 -3q1 0 1 -2q-1 0 -1 -1l-6 -12q0 -1 -2 -1l-1 1l-9 5v-252zM76 46v256l-58 31v-256zM210 46v256l-67 36v-256zM354 160q2 0 2 -3v-27q0 -2 -2 -2 h-13q-3 0 -3 2v27q0 3 3 3h13zM354 52q2 0 2 -2v-10q0 -11 -10 -11q-2 0 -6 2l-8 4q-1 0 -1 2v1l6 12l1 1l2 1h1h13zM349 314q7 -4 7 -12v-10q0 -2 -2 -2h-13q-3 0 -3 2v8l-6 4q-1 0 -1 1v2l6 11q2 2 3 1zM354 267q2 0 2 -2v-27q0 -2 -2 -2h-13q-3 0 -3 2v27q0 2 3 2h13z M354 106q2 0 2 -2v-27q0 -3 -2 -3h-13q-3 0 -3 3v27q0 2 3 2h13zM354 213q2 0 2 -2v-27q0 -2 -2 -2h-13q-3 0 -3 2v27q0 2 3 2h13z" />
<glyph unicode="&#xf153;" horiz-adv-x="427" d="M193 140q8 0 8 -8v-112q0 -8 -8 -8h-72q-8 0 -8 8v112q0 8 8 8h72zM306 372q8 0 8 -8v-344q0 -8 -8 -8h-72q-8 0 -8 8v344q0 8 8 8h72zM420 267q7 0 7 -7v-240q0 -8 -7 -8h-73q-8 0 -8 8v240q0 7 8 7h73zM80 267q8 0 8 -7v-240q0 -8 -8 -8h-72q-8 0 -8 8v240q0 7 8 7h72z " />
<glyph unicode="&#xf154;" horiz-adv-x="387" d="M380 238q7 0 7 -8v-77q0 -8 -7 -8h-372q-8 0 -8 8v77q0 8 8 8h372zM226 357q5 -2 5 -8v-77q0 -6 -5 -8h-218q-8 0 -8 8v77q0 8 8 8h218zM275 120q8 0 8 -8v-77q0 -8 -8 -8h-267q-8 0 -8 8v77q0 8 8 8h267z" />
<glyph unicode="&#xf155;" horiz-adv-x="380" d="M212 382q70 -1 118.5 -50t49.5 -119q0 -6 -6 -6h-1h-161q-7 0 -7 6v161v1q0 7 7 7zM341 174v-2q0 -70 -49.5 -120t-120.5 -50t-121 50t-50 120t50 120.5t121 50.5h1h1q7 0 7 -7l-1 -1h1v-147q0 -7 6 -7h148q7 0 7 -7z" />
<glyph unicode="&#xf156;" horiz-adv-x="410" d="M384 37h-359q-11 0 -18 7.5t-7 17.5v260q0 10 7 17.5t18 7.5h359q11 0 18.5 -7.5t7.5 -17.5v-260q0 -10 -7.5 -17.5t-18.5 -7.5zM359 87v210h-309v-210h309zM162 111q-8 0 -13 5l-25 25l-31 -25q-15 -11 -25 2q-11 15 2 25l44 36q12 11 24 -1l21 -21l46 72q6 8 16 8 t15 -10l27 -58l52 92q9 16 25 7t7 -24l-70 -123q-5 -9 -16 -9t-16 11l-28 59l-40 -63q-4 -6 -13 -8h-2z" />
<glyph unicode="&#xf157;" horiz-adv-x="399" d="M148 320q-5 3 -5 9q0 10 10 10q5 0 8 -3l60 -60q5 -3 5 -9q0 -10 -11 -10q-2 0 -6 2h-1v1zM215 111h-25q-28 0 -41 1l24 -42q4 -6 4 -11q0 -7 -5.5 -12.5t-12.5 -5.5q-9 0 -14 7l-38 65l-37 -65h-1q-5 -7 -14 -7q-7 0 -12.5 5.5t-5.5 12.5q0 5 4 11l32 56q-14 10 -14 56 q0 14 4 34l-57 33q-6 3 -6 11q0 13 13 13q4 0 6 -1l56 -33q1 0 3 1h137v-129zM306 125l31 -55q4 -6 4 -11q0 -7 -5.5 -12.5t-12.5 -5.5q-9 0 -14 7h-1l-37 65l-38 -65q-5 -7 -14 -7q-7 0 -12.5 5.5t-5.5 12.5q0 5 4 11l31 54v116l83 -83q-3 -27 -13 -32zM399 235 q0 -6 -4 -10l-11 -11h-10h-40l-14 -14q1 -5 1 -16l-72 72l42 42l26 45l13 -22q1 0 7 -3v1l26 -15q11 -5 11 -18v-21l20 -20q5 -3 5 -10z" />
<glyph unicode="&#xf158;" horiz-adv-x="321" d="M148 302q43 0 73.5 -31t30.5 -75q0 -18 -6 -36v-1q-1 -1 -1 -2q-15 -26 -25 -38q0 -1 -2 -2.5t-2 -2.5q-10 -11 -10 -24q1 -36 -1 -45q-6 -38 -55 -40v0q-7 0 -12 4.5t-5 11.5q0 9 4 13q5 5 12 5q20 1 23 11v2v37q-1 24 18 48l4 4q12 14 21 32q3 10 3 23q0 29 -20.5 50.5 t-49.5 21.5t-50 -21.5t-21 -50.5q0 -7 -5 -12t-12 -5t-12 5t-5 12q0 44 31 75t74 31zM172 194q0 10 -7 17t-17 7t-17 -7t-7 -17q0 -6 -4.5 -10.5t-10.5 -4.5q-14 0 -14 15q0 22 15.5 37t37.5 15t37 -15t15 -37q0 -15 -14 -15t-14 15zM75 142q11 11 22 0q5 -5 5 -12 q0 -6 -5 -11l-70 -71q-4 -4 -11 -4t-11 4q-5 5 -5 12q0 6 5 11zM207 334q29 0 49 -20t20 -48v-7q0 -6 -6 -6h-12q-6 0 -6 6v7q0 18 -13.5 31t-31.5 13v0h-7q-5 0 -5 6v11q0 7 5 7h7v0zM321 266v-7q0 -6 -6 -6h-11q-7 0 -7 6v7q0 37 -26.5 63t-63.5 26v0h-7q-5 0 -5 6v12 q0 6 5 6h7v0q47 0 80.5 -33t33.5 -80z" />
<glyph unicode="&#xf159;" horiz-adv-x="409" d="M295 379q47 0 80.5 -33.5t33.5 -80.5q0 -31 -10.5 -60.5t-20.5 -43t-28 -36.5l-6 -7q-25 -31 -132 -111q-2 -2 -8 -2q-5 0 -7 2q-107 80 -132 111l-6 7q-18 23 -28 36.5t-20.5 43t-10.5 60.5q0 47 33.5 80.5t80.5 33.5q57 0 90 -44q33 44 91 44z" />
<glyph unicode="&#xf15a;" horiz-adv-x="353" d="M348 254q5 -3 5 -10v-233q0 -13 -13 -13h-96q-12 0 -12 13v143h-111v-143q0 -13 -12 -13h-96q-13 0 -13 13v233q0 7 5 10l161 129q8 6 16 0z" />
<glyph unicode="&#xf15b;" horiz-adv-x="300" d="M0 362h300l-27 -306l-123 -34l-123 34zM243 289l1 11h-94h-94l1 -11l9 -103h84h46l-4 -49l-42 -11v0l-42 11l-3 30h-20h-17l5 -59l77 -21v0l77 21v7l9 98l1 11h-10h-77h-50l-3 38h53h90h1v8z" />
<glyph unicode="&#xf15c;" horiz-adv-x="355" d="M337 370q18 0 18 -17v-16q0 -17 -18 -17h-320q-17 0 -17 17v16q0 17 17 17h320zM337 64q18 0 18 -17v-16q0 -17 -18 -17h-320q-17 0 -17 17v16q0 17 17 17h320zM355 149v-16q0 -17 -18 -17h-198q-18 0 -18 17v16q0 17 18 17h198v0q18 0 18 -17zM355 250v-16 q0 -17 -18 -17h-198q-18 0 -18 17v16q0 8 5.5 13t12.5 5h198v0q7 0 12.5 -5t5.5 -13zM0 192q0 1 1 2v1l64 36q1 1 2 1q3 0 3 -3v-74q0 -3 -3 -3q-1 0 -2 1l-63 36q-2 0 -2 3z" />
<glyph unicode="&#xf15d;" horiz-adv-x="355" d="M337 370q18 0 18 -17v-16q0 -17 -18 -17h-320q-17 0 -17 17v16q0 17 17 17h320zM337 64q18 0 18 -17v-16q0 -17 -18 -17h-320q-17 0 -17 17v16q0 17 17 17h320zM355 149v-16q0 -17 -18 -17h-199q-17 0 -17 17v16q0 17 17 17h199q18 0 18 -17zM355 250v-16q0 -17 -18 -17 h-199q-17 0 -17 17v16q0 18 17 18h199q7 0 12.5 -5t5.5 -13zM3 152q-3 0 -3 3v74q0 3 3 3q1 0 2 -1l63 -36q2 0 2 -3q0 -1 -1 -2v-1l-64 -36q-1 -1 -2 -1z" />
<glyph unicode="&#xf15e;" horiz-adv-x="384" d="M192 384q80 0 136 -56t56 -136t-56 -136t-136 -56t-136 56t-56 136t56 136t136 56zM212 85v124q0 7 -7 7h-26q-7 0 -7 -7v-124q0 -6 7 -6h26q7 0 7 6zM192 244q10 0 16.5 6.5t6.5 16.5t-6.5 16.5t-16.5 6.5t-16.5 -6.5t-6.5 -16.5t6.5 -16.5t16.5 -6.5z" />
<glyph unicode="&#xf15f;" horiz-adv-x="108" d="M108 324v-4l-58 -261q-2 -12 -13 -12h-25q-12 2 -12 13v3v0l58 261q0 13 13 13h24q13 0 13 -13z" />
<glyph unicode="&#xf160;" horiz-adv-x="445" d="M445 218v0v-32q0 -5 -2 -7t-7 -2h-27h-1v-61v-39q0 -9 -9 -9h-1h-31q-10 0 -10 9v21v79h-25v-26v-39q0 -9 -10 -9h-31h-1q-9 0 -9 9v16v23v26h-45q-8 -42 -40.5 -70.5t-76.5 -28.5q-49 0 -84 35t-35 84t35 84t84 35q41 0 73 -25t42 -64h163h12h27q4 0 7 -3q2 -2 2 -6z M119 128q29 0 48.5 20t19.5 48t-19.5 48t-48.5 20t-48.5 -20t-19.5 -48t19.5 -48t48.5 -20z" />
<glyph unicode="&#xf161;" horiz-adv-x="488" d="M60 101q-10 0 -18 7.5t-8 18.5v226q0 10 7.5 17.5t18.5 7.5h368q10 0 17.5 -7t7.5 -18v-226q0 -11 -7.5 -18.5t-17.5 -7.5h-368zM85 327v-175h318v175h-318zM476 76q4 0 8 -4t4 -8v-28q0 -5 -4 -9l-18 -18q-3 -3 -8 -3h-430q-4 0 -8 4l-17 18q-3 3 -3 8v28q0 4 4 8t8 4 h464zM288 35v12q0 2 -2 2h-84q-3 0 -3 -2v-12q0 -3 3 -3h84q2 0 2 3z" />
<glyph unicode="&#xf162;" horiz-adv-x="381" d="M76 173v119h229v-119h-229zM82 92v56h57v-56h-57zM246 92v56h57v-56h-57zM164 92v56h57v-56h-57zM358 368q10 0 16.5 -6.5t6.5 -16.5v-307q-1 -9 -7.5 -15.5t-15.5 -6.5h-335v0q-9 0 -15.5 6.5t-7.5 15.5v307q0 10 6.5 16.5t16.5 6.5h335zM330 67v250h-279v-250h279z" />
<glyph unicode="&#xf163;" horiz-adv-x="426" d="M368 351l-45 -45q-5 -5 -10 0l-11 11q-5 5 0 10l45 45q5 6 11 0v0l10 -10q6 -6 0 -11v0zM206 349q-8 0 -8 7v64q0 8 8 8h14q8 0 8 -8v-64q0 -7 -8 -7h-14zM426 243v-15q0 -7 -7 -7h-64q-7 0 -7 7v15q0 8 7 8h64q7 0 7 -8zM213 324q45 0 77 -32t32 -77q0 -31 -18 -59 q-27 -40 -29 -99q-3 -5 -7 -5h-1h-108h-1q-4 0 -6 4q-1 55 -28 96q-20 28 -20 63q0 45 32 77t77 32zM268 -12q7 0 7 -7v-17q0 -8 -7 -8h-1h-108h-1q-8 0 -8 8v17q0 7 8 7h1h108h1zM268 37q7 0 7 -8v-17q0 -8 -7 -8l-1 1v-1h-108v1l-1 -1q-8 0 -8 8v17q0 8 8 8h1h108h1z M71 245q8 0 8 -8v-14q0 -8 -8 -8h-64q-7 0 -7 8v14q0 8 7 8h64zM60 354q-5 5 0 10l11 11v0q5 5 11 0l45 -46q5 -5 0 -10l-11 -10q-6 -5 -10 -1z" />
<glyph unicode="&#xf164;" horiz-adv-x="333" d="M333 67q0 -13 -13 -13v0v0h-26v1q-10 0 -12 11v141q0 13 12 13h25h1q12 0 12 -13v0v-138q0 -1 0.5 -1t0.5 -1zM256 46v-1v0q0 -12 -13 -12h-1h-185q-4 0 -5 1l-50 50q-2 2 -2 5v144q0 13 13 13h70v58v1v17v0q0 12 8.5 20.5t20.5 8.5q18 0 26 -15l51 -87l1 -1q0 -2 1 -2 h51h1q13 0 13 -13v0v-144v-43zM15 89l1 -1z" />
<glyph unicode="&#xf165;" horiz-adv-x="353" d="M323 339q29 -29 30 -70t-26 -71l-52 -52q-13 -13 -31 -21q-7 -17 -18 -28l-51 -52q-30 -30 -72.5 -30t-72.5 30t-30 72.5t30 72.5l52 52v-1q12 12 27 18q8 18 22 32l52 51q30 27 70.5 26.5t69.5 -29.5zM140 82l37 38q-26 6 -46 26q-21 21 -27 47l-37 -38 q-15 -15 -15 -36.5t15 -36.5t36.5 -15t36.5 15zM168 183q13 -13 33 -15q-2 20 -15 33t-33 15q2 -20 15 -33zM290 232q13 15 12 35.5t-15 34.5t-34.5 15t-35.5 -12l-3 -3v0l-38 -38q26 -6 46 -26q21 -21 27 -47l38 38v0z" />
<glyph unicode="&#xf166;" horiz-adv-x="431" d="M414 345q17 0 17 -18v-16q0 -17 -17 -17h-320q-17 0 -17 17v16q0 18 17 18h320zM414 217q17 0 17 -17v-16q0 -17 -17 -17h-320q-17 0 -17 17v16q0 17 17 17h320zM414 90q17 0 17 -17v-16q0 -18 -17 -18h-320q-17 0 -17 18v16q0 17 17 17h320zM0 319q0 26 26 26 q25 0 25 -26q0 -25 -25 -25q-26 0 -26 25zM0 197q0 26 26 26q25 0 25 -26q0 -25 -25 -25q-26 0 -26 25zM0 65q0 25 26 25q25 0 25 -25q0 -26 -25 -26q-26 0 -26 26z" />
<glyph unicode="&#xf167;" horiz-adv-x="423" d="M29 333l-9 -9l-6 7l17 17h10v-55h-12v40zM21 210q-8 0 -14 -6l-7 8q8 9 21 9q21 0 21 -18q0 -12 -22 -28h22v-10h-41v9q29 22 29 29t-9 7zM30 65q13 -2 13 -13q0 -16 -21 -16q-15 0 -22 9l6 8q7 -7 15 -7q11 0 11 7t-11 7h-7v10h7q10 0 10 6t-10 6q-9 0 -14 -5l-6 7 q7 9 21 9q20 0 20 -15q0 -11 -12 -13zM406 346q17 0 17 -17v-16q0 -18 -17 -18h-320q-17 0 -17 18v16q0 17 17 17h320zM406 219q17 0 17 -18v-16q0 -17 -17 -17h-320q-17 0 -17 17v16q0 18 17 18h320zM406 91q17 0 17 -17v-16q0 -18 -17 -18h-320q-17 0 -17 18v16 q0 17 17 17h320z" />
<glyph unicode="&#xf168;" horiz-adv-x="332" d="M321 103q11 0 11 -12v-1v-53q0 -11 -11 -11h-182q-11 0 -11 11v53v1q0 12 11 12v0h182zM65 103q5 0 8.5 -3.5t3.5 -8.5v0v-54q0 -11 -12 -11h-53v0q-12 0 -12 11v54v0q0 5 4 8.5t8 3.5v0h53zM321 231q11 0 11 -12v-1v-53q0 -11 -11 -11h-182q-11 0 -11 11v53v1 q0 12 11 12v0h182zM65 231q5 0 8.5 -3.5t3.5 -8.5v0v-54q0 -11 -12 -11h-53v0q-12 0 -12 11v54v0q0 5 4 8.5t8 3.5v0h53zM128 293v53v1q0 11 11 11v0h182q11 0 11 -11v-1v-53q0 -12 -11 -12h-182q-11 0 -11 12zM65 358q12 0 12 -11v0v-54q0 -5 -3.5 -8.5t-8.5 -3.5h-53v0 q-4 0 -8 3.5t-4 8.5v54v0q0 11 12 11v0h53z" />
<glyph unicode="&#xf169;" horiz-adv-x="332" d="M0 293v53v1q0 11 12 11v0h309q11 0 11 -11v-54q0 -12 -11 -12h-309q-4 0 -8 3.5t-4 8.5zM321 230q11 0 11 -11v-54q0 -11 -11 -11h-309q-12 0 -12 11v53v1q0 11 12 11v0h309zM321 103q11 0 11 -12v-54q0 -11 -11 -11h-309q-12 0 -12 11v53v1q0 5 4 8.5t8 3.5v0h309z" />
<glyph unicode="&#xf16a;" horiz-adv-x="356" d="M342 222q5 0 9.5 -4.5t4.5 -9.5v-197q0 -5 -4.5 -9.5t-9.5 -4.5h-329q-5 0 -9 4.5t-4 9.5v197q0 5 4 9.5t9 4.5h19h22v43q0 50 35.5 86t85.5 36t86 -36t36 -86v-43h26h19zM126 265v-43h99v43v1v0q0 20 -15 34.5t-35 14.5q-21 0 -35 -14.5t-14 -35.5z" />
<glyph unicode="&#xf16b;" horiz-adv-x="346" d="M346 327v-137q0 -4 -3 -6q-5 -2 -7 -1l-130 44q-5 2 -5 6q0 5 3 8l30 21l5 4q-30 23 -66 23q-63 0 -93 -55q-8 -12 -18 -5l-42 24q-11 5 -5 17q24 43 66 68t92 25q75 0 128 -53l2 2l31 22q2 2 8 0q4 -1 4 -7zM326 131q12 -6 6 -17q-24 -43 -66.5 -68t-92.5 -25 q-74 0 -127 53l-3 -2l-30 -22q-2 -2 -8 0q-5 2 -5 7v137q0 4 3 6q5 2 7 1l130 -44q6 -2 6 -6q0 -5 -3 -8l-31 -21l-5 -4q30 -23 66 -23q30 0 55 15t39 40q8 12 18 5z" />
<glyph unicode="&#xf16c;" horiz-adv-x="397" d="M233 395q68 0 116 -48t48 -116t-48 -116t-116 -48q-39 0 -73 17l-82 -82v1q-14 -14 -33 -14t-32 13t-13 32t14 33h-1l80 79q-24 40 -24 85q0 68 48 116t116 48zM234 132q43 0 73 29.5t30 72.5t-30 72.5t-73 29.5t-72.5 -29.5t-29.5 -72.5t29.5 -72.5t72.5 -29.5z" />
<glyph unicode="&#xf16d;" horiz-adv-x="394" d="M381 345q13 0 13 -13v-24q0 -1 -2 -3q0 -1 -2 -2t-3 -1l-188 -110q-1 0 -1 -0.5t-1 -0.5t-1 1l-194 110q-2 2 -2 3v27q0 13 13 13h368zM393 265q1 -1 1 -2v-177q0 -3 -2 -3l-1 -1q-1 0 -2 1l-107 115v3q0 2 1 2l106 62q2 2 4 0zM253 182l127 -137q2 -2 0 -4t-3 -2h-364 q-2 0 -6 2q-2 2 -2 3q0 2 1 3l142 131q2 2 4 1l38 -22q7 -4 16 1l42 25q2 2 5 -1zM117 194l-112 -103q-1 -1 -2 -1h-1q-2 2 -2 3v167q0 1 2 3q2 1 3 0l111 -64l2 -2q0 -2 -1 -3z" />
<glyph unicode="&#xf16e;" horiz-adv-x="466" d="M49 347q0 42 42 42q43 0 43 -42t-43 -42q-42 0 -42 42zM172 293q9 -2 12 -6q6 -8 6 -13v-120q0 -7 -6 -13q-5 -5 -12 -5q-8 0 -13 5t-5 13v82v1q0 6 -6 6t-6 -6v-1v-53v-55v-110q0 -9 -6 -15t-14 -6q-9 0 -15 6t-6 15v110q0 6 -6 6t-6 -6v-110q0 -9 -6 -15t-15 -6t-15 6 t-6 15v165v53v1q0 6 -5 6q-6 0 -6 -6v-1v-82q0 -8 -5 -13t-13 -5t-13 5t-5 13v120q0 8 6 14q5 5 14 5h152zM305 347q0 42 42 42q43 0 43 -42q0 -43 -43 -43q-42 0 -42 43zM466 171v-3q0 -6 -2 -9q-3 -4 -7 -7q-3 -2 -9 -2q-13 0 -17 11l-21 78q-1 4 -5 4q-6 0 -6 -5v-2 l33 -124q1 -1 1 -4h1h-1h1q0 -10 -10 -10h-25v-82q0 -9 -6 -15t-15 -6t-15 6t-6 15v82h-12v-82q0 -6 -3 -11q-4 -6 -7 -8t-11 -2q-9 0 -15 6t-6 15v82h-24q-10 0 -10 10v0q0 3 1 4l33 124v1v1v1q-1 4 -5 4q-5 0 -6 -4v0l-21 -78q-4 -11 -17 -11q-8 0 -13 5t-5 13v3l29 106v2 q5 14 19 14h134v0q14 0 19 -14l1 -2z" />
<glyph unicode="&#xf16f;" horiz-adv-x="342" d="M342 354v-106q0 -8 -8 -8h-35q-8 0 -8 8v28l-46 -46q23 -35 23 -74q0 -56 -39 -95t-95 -39t-95 39t-39 95t39 95t95 39q41 0 76 -24l44 45h-26q-8 0 -8 8v0v35q0 8 8 8h106q8 0 8 -8zM134 73q34 0 58.5 24.5t24.5 58.5t-24.5 58.5t-58.5 24.5t-58.5 -24.5t-24.5 -58.5 t24.5 -58.5t58.5 -24.5z" />
<glyph unicode="&#xf170;" horiz-adv-x="190" d="M49 346q0 42 42 42q43 0 43 -42t-43 -42q-42 0 -42 42zM172 292q9 -2 12 -6q6 -8 6 -14v-120q0 -6 -6 -12q-5 -5 -12 -5q-8 0 -13 5t-5 12v83v1q0 6 -6 6t-6 -6v-1v-53v-55v-110q0 -9 -6 -15t-14 -6q-9 0 -15 6t-6 15v110q0 6 -6 6t-6 -6v-110q0 -9 -6 -15t-15 -6t-15 6 t-6 15v165v53v1q0 6 -5 6q-6 0 -6 -6v-1v-83q0 -7 -5 -12t-13 -5t-13 5t-5 12v120q0 6 3 10q4 6 7 8t10 2h152z" />
<glyph unicode="&#xf171;" horiz-adv-x="430" d="M430 407v-430v-1v-2h-1q-2 -11 -13 -11h-402q-14 0 -14 14v0v283l161 161v0v0h255v0v0q14 0 14 -14zM305 370l-19 -33l93 -92v125h-74zM161 246h-110v-31l86 -85l139 240h-101v-110v0q0 -14 -14 -14zM51 14h19l53 93l-72 72v-165zM99 14h280v194l-106 106zM276 215 q26 0 44 -18.5t18 -43.5q0 -22 -12 -37l-39 -67q0 -1 -2 -3v0q-4 -4 -8 -4q-7 0 -10 4v1v1l-40 69q-12 17 -12 36q0 26 18 44t43 18zM276 122q13 0 21.5 8.5t8.5 21.5t-8.5 22t-21.5 9t-21.5 -9t-8.5 -22t8.5 -21.5t21.5 -8.5z" />
<glyph unicode="&#xf172;" horiz-adv-x="289" d="M144 395q60 0 102.5 -42.5t42.5 -102.5q0 -47 -30 -87l-90 -157q-1 -1 -2 -3t-2 -3l-1 -2v1q-8 -10 -20 -10q-13 0 -21 11v0q-1 0 -1 1t-1 2l-92 161q-29 39 -29 86q0 60 42 102.5t102 42.5zM143 177q29 0 50 21t21 50t-21 50t-50 21t-50 -21t-21 -50t21 -50t50 -21z" />
<glyph unicode="&#xf173;" horiz-adv-x="385" d="M76 302q14 0 14 -14v-127q-2 -12 -14 -12q-31 0 -53.5 22.5t-22.5 54.5t22 54t54 22zM385 364v0v-24v-236v-23v-2q0 -14 -14 -14q-5 0 -9 4l-134 77h-98q-12 0 -14 13v132q0 14 14 14h110l123 70q3 3 8 3q14 0 14 -14zM224 41q5 -10 -3 -17v-1l-26 -14l-2 -2 q-10 -7 -18 5l-1 1v0l-49 85v1q-1 0 -1 1q-7 12 5 19q4 2 6 2h37q5 0 9 -6l43 -73v-1v0z" />
<glyph unicode="&#xf174;" horiz-adv-x="261" d="M261 196q0 -49 -32 -85t-79 -43v-28h68q19 0 19 -19q0 -8 -5.5 -14t-13.5 -6h-175q-8 0 -14 6t-6 14t6 13.5t14 5.5h68v28q-47 7 -79 43t-32 85v74q0 19 19 19q8 0 14 -5.5t6 -13.5v-73q0 -38 26.5 -65t64.5 -27t65 27t27 65v73q0 19 19 19q8 0 14 -5.5t6 -13.5v-73v0v-1 zM65 197v2v119q1 27 19.5 46t45.5 19t46 -19t20 -46v-119v-2q0 -27 -19.5 -46t-46.5 -19t-46 19t-19 46z" />
<glyph unicode="&#xf175;" horiz-adv-x="384" d="M281 219q5 0 5 -5v-44q0 -5 -5 -5h-178q-5 0 -5 5v44q0 5 5 5h178zM192 333q-58 0 -99.5 -41.5t-41.5 -99.5t41.5 -99.5t99.5 -41.5t99.5 41.5t41.5 99.5t-41.5 99.5t-99.5 41.5zM192 384q80 0 136 -56t56 -136t-56 -136t-136 -56t-136 56t-56 136t56 136t136 56z" />
<glyph unicode="&#xf176;" horiz-adv-x="414" d="M404 251q10 0 10 -11v-96q0 -11 -10 -11h-394q-10 0 -10 11v96q0 11 10 11h394z" />
<glyph unicode="&#xf177;" horiz-adv-x="224" d="M211 295q13 0 13 -13v-307q0 -13 -13 -13h-199q-12 0 -12 13v307q0 13 12 13h199zM112 -24q13 0 13 12q0 13 -13 13q-12 0 -12 -13q0 -12 12 -12zM173 13v231h-122v-231h122zM212 368v-1v0l-9 -9v0h-1q-5 -5 -10 -1v1v0l-5 5q-31 31 -75 30.5t-75 -31.5v0l-6 -5 q-5 -3 -9 0l-10 9q-5 5 -1 10v1h1v0l5 5v0q39 39 95 39.5t95 -38.5v-1v0l5 -5q3 -5 0 -9zM174 339q3 -5 0 -9l-9 -10v0v0q-5 -5 -11 -1v1v0l-5 5q-16 15 -37.5 15t-36.5 -15v-1l-6 -5q-5 -3 -9 0l-10 9v1q-5 5 -1 10l6 5v1q23 23 56.5 23t57.5 -23z" />
<glyph unicode="&#xf178;" horiz-adv-x="224" d="M211 358q13 0 13 -12v-308q0 -12 -13 -12h-199q-12 0 -12 12v308q0 12 12 12h199zM112 39q13 0 13 12q0 13 -13 13q-12 0 -12 -13q0 -12 12 -12zM173 77v230h-122v-230h122z" />
<glyph unicode="&#xf179;" horiz-adv-x="471" d="M442 381q12 0 20.5 -8t8.5 -20v-252q0 -12 -8.5 -20.5t-20.5 -8.5h-156v-44h44q9 0 9 -8v-9q0 -8 -9 -8h-194q-8 0 -8 8v9q0 8 8 8h48v44h-155q-12 0 -20.5 8.5t-8.5 20.5v252q0 12 8.5 20t20.5 8h413zM51 123h368v208h-368v-208z" />
<glyph unicode="&#xf17a;" horiz-adv-x="467" d="M465 48q2 -4 2 -6q0 -12 -12 -14h-256h-103h-87v1q-1 0 -1 -0.5t-1 -0.5q-7 0 -7 7q0 4 1 5l8 13v1h1l81 140q3 7 11 7t11 -7l27 -48l114 196q7 14 21 14q13 0 20 -13l171 -295h-1z" />
<glyph unicode="&#xf17b;" horiz-adv-x="382" d="M366 378q16 0 16 -16v-253q0 -23 -20 -39.5t-49 -16.5t-49 16.5t-20 39.5t20 39.5t49 16.5q6 0 18 -2v135h-193v-236q0 -23 -20 -39.5t-49 -16.5t-49 16.5t-20 39.5t20 39.5t49 16.5q6 0 18 -2v246q0 7 5 11.5t12 4.5h262z" />
<glyph unicode="&#xf17c;" horiz-adv-x="397" d="M397 52q0 -13 -13 -13v-1h-25q-13 0 -13 13v1v120l-170 -99q-2 -2 -7 -2q-8 0 -8 8v78l-146 -84q-2 -2 -6 -2q-9 0 -9 8v226q0 8 9 8q4 0 6 -2l146 -84v78q0 8 8 8q5 0 7 -2l170 -99v119v2q0 13 13 13l1 -1h24q11 0 13 -11v-2v0v-280z" />
<glyph unicode="&#xf17d;" horiz-adv-x="384" d="M192 384q80 0 136 -56t56 -136t-56 -136t-136 -56t-136 56t-56 136t56 136t136 56zM192 51q50 0 90 33l-24 24q-3 0 -6 3l-4 7l-21 21l-16 -28h-1q-4 -4 -7 -4q-10 0 -10 10q0 2 2 6l13 23h-21h-23l13 -23l3 -6q0 -10 -10 -10q-4 0 -8 4l-21 36l-21 -36q-4 -4 -8 -4 q-10 0 -10 10l3 6l17 31q-7 7 -7 31q0 9 2 19l-32 18q-3 2 -3 6q0 7 7 7q3 0 4 -1l31 -18v1h25l-65 65q-33 -40 -33 -90q0 -58 41.5 -99.5t99.5 -41.5zM300 102q33 40 33 90q0 58 -41.5 99.5t-99.5 41.5q-50 0 -90 -33l83 -83h26l30 30h-1l17 30l10 -17h1l14 -8q6 -3 6 -10 v-11l11 -11q3 -2 3 -6q0 -3 -2 -5l-6 -6h-6h-22l-8 -8q0 -1 0.5 -4.5t0.5 -5.5q0 -27 -9 -32l3 -4z" />
<glyph unicode="&#xf17e;" horiz-adv-x="384" d="M272 213q5 0 5 -6v-31q0 -5 -5 -5v0h-4q-6 0 -6 5v1v0v30q0 6 6 6h4zM293 213q6 0 6 -6v-30v-1q0 -5 -6 -5v0h-3q-6 0 -6 5v31q0 6 6 6h3zM192 384q80 0 136 -56t56 -136t-56 -136t-136 -56t-136 56t-56 136t56 136t136 56zM192 51q50 0 90 33l-87 87h-104q-6 0 -6 6v30 v0q0 6 6 6h62l-69 69q-33 -40 -33 -90q0 -58 41.5 -99.5t99.5 -41.5zM300 102q33 40 33 90q0 58 -41.5 99.5t-99.5 41.5q-50 0 -90 -33l87 -87h60q6 0 6 -6v-30q0 -6 -6 -6h-18z" />
<glyph unicode="&#xf17f;" horiz-adv-x="360" d="M301 46q9 0 9 -9v-45v-13q0 -8 -9 -8h-8h-276h-8q-9 0 -9 8v13v271v5v13l133 132h9h147h12q9 0 9 -8v-21v-127v0v0q0 -9 -9 -9h-33q-9 0 -9 9v105h-108v-90q0 -9 -9 -9h-91v-241h208v15q0 9 9 9h33zM351 174q9 0 9 -9v-36q0 -8 -9 -8h-40v-40q0 -9 -9 -9h-35q-9 0 -9 9 v40h-40q-9 0 -9 8v36q0 9 9 9h40v40q0 8 9 8h35q9 0 9 -8v-40h40z" />
<glyph unicode="&#xf180;" horiz-adv-x="361" d="M310 410v-392v-13q0 -9 -9 -9h-8h-276h-8q-9 0 -9 9v13v271v5v12l133 133h9h147h12q9 0 9 -9v-20zM51 47h208v341h-108v-91q0 -8 -9 -8h-91v-242zM354 321q7 0 7 -8v-360q0 -8 -7 -8h-272v0q-7 0 -7 8v17h253q8 0 8 8v343h18z" />
<glyph unicode="&#xf181;" horiz-adv-x="310" d="M106 119q-12 0 -12 -11q0 -12 12 -12q7 0 9 7l12 -6q-7 -14 -21 -14q-11 0 -18.5 7t-7.5 18q0 24 26 24q15 0 21 -14l-12 -5q-1 6 -9 6zM148 118l13 -4q13 -3 13 -14q0 -17 -20 -17q-14 0 -22 8l7 10q8 -6 15 -6q6 0 6 3q0 1 -13.5 4t-13.5 14q0 16 20 16q11 0 20 -7 l-8 -10q-7 5 -14 5q-3 0 -3 -2zM204 99l10 32h16l-17 -47h-18l-18 47h16zM310 384v-392v-13q0 -8 -9 -8h-8h-276h-8q-9 0 -9 8v13v271v5v13l133 132h9h147h12q9 0 9 -8v-21zM51 22h208v340h-108v-90q0 -9 -9 -9h-91v-241z" />
<glyph unicode="&#xf182;" horiz-adv-x="361" d="M301 46q9 0 9 -9v-45v-13q0 -8 -9 -8h-8h-276h-8q-9 0 -9 8v13v271v5v13l133 132h9h147h12q9 0 9 -8v-21v-127v0v0q0 -9 -9 -9h-33q-9 0 -9 9v105h-108v-90q0 -9 -9 -9h-91v-241h208v15q0 9 9 9h33zM330 147l28 -28q6 -7 0 -13l-25 -25q-6 -6 -12 0l-29 29l-28 -29 q-6 -6 -12 0l-25 25q-2 2 -2 6.5t2 6.5l28 28l-28 28q-2 2 -2 6.5t2 6.5l25 25q6 6 12 0l28 -28l28 28q2 2 6.5 2t6.5 -2l25 -25q6 -6 0 -13z" />
<glyph unicode="&#xf183;" horiz-adv-x="310" d="M310 384v-392v-13q0 -8 -9 -8h-8h-276h-8q-9 0 -9 8v13v271v5v13l133 132h9h147h12q9 0 9 -8v-21zM51 22h208v340h-108v-90q0 -9 -9 -9h-91v-241zM97 131q26 0 26 -23q0 -24 -26 -24h-21v47h21zM97 96q11 0 11 12q0 11 -11 11h-7v-23h7zM155 132q26 0 26 -24 q0 -11 -7.5 -18t-18.5 -7t-18.5 7t-7.5 18q0 24 26 24zM155 96q11 0 11 12q0 11 -11 11q-12 0 -12 -11q0 -12 12 -12zM213 119q-12 0 -12 -11q0 -12 12 -12q7 0 9 7l12 -6q-7 -14 -21 -14q-11 0 -18.5 7t-7.5 18q0 24 26 24q15 0 21 -14l-12 -5q-2 6 -9 6z" />
<glyph unicode="&#xf184;" horiz-adv-x="428" d="M301 46q9 0 9 -9v-45v-13q0 -8 -9 -8h-8h-276h-8q-9 0 -9 8v13v271v5v13l133 132h9h147h12q9 0 9 -8v-21v-84v0v-1q0 -8 -9 -8h-33q-9 0 -9 8v63h-108v-90q0 -9 -9 -9h-91v-241h208v15q0 9 9 9h33zM425 248q6 -6 0 -12l-163 -163v0l-82 -22q-5 -4 -10 1q-4 4 -2 9l22 84 l1 -1l-1 1l163 163q7 6 13 0zM195 78l49 13l-36 36z" />
<glyph unicode="&#xf185;" horiz-adv-x="458" d="M456 112q2 -1 2 -5t-2 -5l-94 -68q-4 -2 -7 -1t-3 6v32h-86q-7 0 -7 7v58q0 6 7 6h85v32q0 4 4 6q3 2 6 0zM301 46q9 0 9 -9v-45v-13q0 -8 -9 -8h-8h-276h-8q-9 0 -9 8v13v271v5v13l133 132h9h147h12q9 0 9 -8v-21v-207v0v-1q0 -8 -9 -8h-33q-9 0 -9 8v186h-108v-90 q0 -9 -9 -9h-91v-241h208v15q0 9 9 9h33zM107 119q-11 0 -11 -11q0 -12 11 -12q7 0 9 7l13 -6q-7 -14 -22 -14q-11 0 -18.5 7t-7.5 18q0 24 26 24q16 0 22 -14l-13 -5q-2 6 -9 6zM156 95q5 0 5 3q0 1 -13 4t-13 14q0 16 19 16q11 0 20 -7l-7 -10q-7 5 -14 5q-4 0 -4 -2 l13 -4q13 -3 13 -14q0 -17 -20 -17q-14 0 -22 8l8 10q8 -6 15 -6zM195 131l10 -32l10 32h16l-17 -47h-18l-17 47h16z" />
<glyph unicode="&#xf186;" horiz-adv-x="458" d="M456 112q2 -1 2 -5t-2 -5l-94 -68q-4 -2 -7 -1t-3 6v32h-86q-7 0 -7 7v58q0 6 7 6h85v32q0 4 4 6q3 2 6 0zM301 46q9 0 9 -9v-45v-13q0 -8 -9 -8h-8h-276h-8q-9 0 -9 8v13v271v5v13l133 132h9h147h12q9 0 9 -8v-21v-207v0v-1q0 -8 -9 -8h-33q-9 0 -9 8v186h-108v-90 q0 -9 -9 -9h-91v-241h208v15q0 9 9 9h33zM77 131h22q26 0 26 -23q0 -24 -26 -24h-22v47zM110 108q0 11 -11 11h-7v-23h7q11 0 11 12zM131 108q0 24 25 24q26 0 26 -24q0 -11 -7.5 -18t-18.5 -7q-25 0 -25 25zM168 108q0 11 -12 11q-11 0 -11 -11q0 -12 11 -12q12 0 12 12z M214 119q-11 0 -11 -11q0 -12 11 -12q7 0 9 7l13 -6q-7 -14 -22 -14q-11 0 -18.5 7t-7.5 18q0 24 26 24q16 0 22 -14l-13 -5q-1 6 -9 6z" />
<glyph unicode="&#xf187;" horiz-adv-x="458" d="M456 112q2 -1 2 -5t-2 -5l-94 -68q-4 -2 -7 -1t-3 6v32h-86q-7 0 -7 7v58q0 6 7 6h85v32q0 4 4 6q3 2 6 0zM301 46q9 0 9 -9v-45v-13q0 -8 -9 -8h-8h-276h-8q-9 0 -9 8v13v271v5v13l133 132h9h147h12q9 0 9 -8v-21v-207v0v-1q0 -8 -9 -8h-33q-9 0 -9 8v186h-108v-90 q0 -9 -9 -9h-91v-241h208v15q0 9 9 9h33zM83 131h26q17 0 17 -16t-17 -16h-11v-15h-15v47zM111 115q0 4 -4 4h-9v-8h9q4 0 4 4zM133 131h21q26 0 26 -23q0 -24 -26 -24h-21v47zM166 108q0 11 -12 11h-7v-23h7q12 0 12 12zM225 119h-22v-5h21v-12h-21v-18h-14v47h36v-12z" />
<glyph unicode="&#xf188;" horiz-adv-x="458" d="M456 112q2 -1 2 -5t-2 -5l-94 -68q-4 -2 -7 -1t-3 6v32h-86q-7 0 -7 7v58q0 6 7 6h85v32q0 4 4 6q3 2 6 0zM301 46q9 0 9 -9v-45v-13q0 -8 -9 -8h-8h-276h-8q-9 0 -9 8v13v271v5v13l133 132h9h147h12q9 0 9 -8v-21v-207v0v-1q0 -8 -9 -8h-33q-9 0 -9 8v186h-108v-90 q0 -9 -9 -9h-91v-241h208v15q0 9 9 9h33z" />
<glyph unicode="&#xf189;" horiz-adv-x="310" d="M9 263q-9 0 -9 9v9l133 132h9q9 0 9 -8v-133q0 -9 -9 -9h-133zM301 413q9 0 9 -8v-426q0 -8 -9 -8h-292q-9 0 -9 8v224q2 8 9 8h184v0q9 0 9 9v0v187q2 6 8 6h91z" />
<glyph unicode="&#xf18a;" horiz-adv-x="389" d="M381 329q8 0 8 -8v-360q0 -8 -8 -8h-271v0q-8 0 -8 8v18h253q8 0 8 7v343h18zM338 12q0 -8 -8 -8h-271q-8 0 -8 8v18h253q8 0 8 7v343h18q8 0 8 -8v-360zM287 63q0 -8 -8 -8h-271q-8 0 -8 8v360q0 8 8 8h271q8 0 8 -8v-360z" />
<glyph unicode="&#xf18b;" horiz-adv-x="310" d="M110 131q17 0 17 -16t-17 -16h-11v-15h-15v47h26zM108 111q4 0 4 4t-4 4h-9v-8h9zM155 131q26 0 26 -23q0 -24 -26 -24h-21v47h21zM155 96q12 0 12 12q0 11 -12 11h-7v-23h7zM190 84v47h36v-12h-22v-5h21v-12h-21v-18h-14zM310 384v-392v-13q0 -8 -9 -8h-8h-276h-8 q-9 0 -9 8v13v271v5v13l133 132h9h147h12q9 0 9 -8v-21zM51 22h208v340h-108v-90q0 -9 -9 -9h-91v-241z" />
<glyph unicode="&#xf18c;" horiz-adv-x="360" d="M310 86v0v-94v-13q0 -8 -9 -8h-8h-276h-8q-9 0 -9 8v13v271v5v13l133 132h9h147h12q9 0 9 -8v-21v-176v0v0q0 -9 -9 -9h-33q-9 0 -9 9v154h-108v-90q0 -9 -9 -9h-91v-241h208v64q0 9 9 9h33q9 0 9 -9v0zM351 174q9 0 9 -9v-36q0 -8 -9 -8h-133q-9 0 -9 8v36q0 9 9 9h133z " />
<glyph unicode="&#xf18d;" horiz-adv-x="403" d="M403 384l-1 -392v-13q0 -8 -8 -8h-8h-277h-8q-9 0 -9 8v13v45q0 9 9 9h34q8 0 8 -9v-15h209v340h-109v-90q0 -9 -9 -9h-91v-9q0 -8 -8 -8h-34q-8 0 -8 8h-1v9v5v13l133 132h9h147h13q8 0 8 -8v-21h1zM199 146q0 -34 -24 -58t-58 -24q-21 0 -37 9l-41 -41q-7 -7 -16 -7 q-10 0 -16.5 6t-6.5 16t7 17l40 40q-12 21 -12 42q0 34 24 58t58 24t58 -24t24 -58zM70 146q0 -20 14 -34t33 -14t33.5 14t14.5 34q0 19 -14 33t-34 14q-19 0 -33 -13.5t-14 -33.5z" />
<glyph unicode="&#xf18e;" horiz-adv-x="310" d="M310 384v-392v-13q0 -8 -9 -8h-8h-276h-8q-9 0 -9 8v13v271v5v13l133 132h9h147h12q9 0 9 -8v-21zM51 22h208v340h-108v-90q0 -9 -9 -9h-91v-241z" />
<glyph unicode="&#xf18f;" horiz-adv-x="439" d="M389 203q9 -9 0 -18l-203 -203q-9 -9 -18 0l-164 164q-10 10 0 19l139 139l-57 58q-8 8 -8 18t8 18t18 8t18 -8l57 -58l27 27q10 9 19 0v0zM288 156l38 38l-110 110l-149 -148h221zM430 70q9 -12 9 -27q0 -20 -14 -34t-33 -14q-20 0 -34 14.5t-14 33.5q0 15 10 28l30 52 v1h1v1q3 3 7 3q3 0 7 -4v0v-1z" />
<glyph unicode="&#xf190;" horiz-adv-x="356" d="M77 -5q-27 0 -50 23q-29 29 -25 62q3 26 27 50l150 151q48 48 83 13q34 -34 -14 -82l-138 -139l-27 27l138 139q21 21 14 28q-8 8 -29 -13l-150 -151q-15 -15 -16 -28q-1 -15 14 -30q11 -11 26 -11q14 2 30 18l178 178q22 22 28 42q8 29 -20 57q-45 45 -98 -8l-165 -165 q-5 -5 -13.5 -5t-13.5 5t-5 13.5t5 13.5l165 165q38 38 77.5 40t74.5 -32q43 -43 30 -94q-9 -30 -38 -59l-178 -178q-26 -26 -51 -29q-2 0 -5 -0.5t-4 -0.5z" />
<glyph unicode="&#xf191;" horiz-adv-x="228" d="M65 346q12 0 12 -11v0v-286v0q0 -11 -12 -11h-54v0q-11 0 -11 11v0v286v0q0 11 11 11h53h1zM228 49v0q0 -11 -11 -11h-55v0q-11 0 -11 11v0v286v0q0 11 11 11h53h2q11 0 11 -11v0v-286z" />
<glyph unicode="&#xf192;" horiz-adv-x="363" d="M104 240q0 -22 -15 -37t-37 -15t-37 15t-15 37t15 36.5t37 14.5t37 -14.5t15 -36.5zM311 281q22 0 37 -15t15 -37t-15 -36.5t-37 -14.5t-37 14.5t-15 36.5t15 37t37 15zM264 172l3 -4q35 -42 35 -84q0 -28 -20 -48t-48 -20q-32 0 -53 27q-21 -27 -54 -27q-28 0 -48 20 t-20 48q0 42 35 84l3 4q5 6 22 21q25 27 62 27q42 0 68 -33zM128 310q0 58 57 58t57 -58q0 -57 -57 -57t-57 57z" />
<glyph unicode="&#xf193;" horiz-adv-x="315" d="M73 88q-4 -16 -20 -16h-40q-7 0 -11 5t-2 11l58 248q4 16 19 16h85q20 0 48 -4q21 -4 35 -13t22 -24q8 -16 8 -37q0 -51 -41 -80q-43 -31 -116 -31h-12q-15 0 -19 -15zM106 232q-4 -16 12 -16h10q33 0 52 14q18 13 18 38q0 16 -12 24q-13 8 -35 8h-13q-16 0 -20 -15z M307 271q8 -16 8 -36q0 -51 -42 -81t-115 -30h-12q-15 0 -19 -16l-14 -60q-4 -16 -20 -16h-40q-7 0 -11 5t-2 11l2 8h28q16 0 19 15l14 61q4 15 19 15h12q73 0 116 31q41 29 41 80q0 21 -8 37v1q1 0 1 -0.5t1 -0.5q14 -9 22 -24z" />
<glyph unicode="&#xf194;" horiz-adv-x="405" d="M401 298q9 -10 0 -19l-253 -254v0l-128 -34q-10 -4 -16 2t-3 14l34 130h1l253 254q10 10 20 0zM43 33l77 20l-57 56z" />
<glyph unicode="&#xf195;" horiz-adv-x="443" d="M442 356h1v-330h-1q-1 -9 -7 -15t-15 -6q-1 0 -4 1v-1h-393q-9 0 -15.5 6.5t-7.5 14.5v2v0v328q0 10 6.5 16.5t16.5 6.5h393v-1h2q1 1 2 1q10 0 16 -6.5t6 -16.5zM392 56v272h-341v-218l28 48q2 5 8 5q5 0 7 -5l19 -33l77 134q4 10 15 10q9 0 14 -9l116 -202l1 -1v-1h56z M262 250q0 52 52 52t52 -52q0 -51 -52 -51t-52 51z" />
<glyph unicode="&#xf196;" horiz-adv-x="384" d="M192 384q80 0 136 -56t56 -136t-56 -136t-136 -56t-136 56t-56 136t56 136t136 56zM192 51q58 0 99.5 41.5t41.5 99.5t-41.5 99.5t-99.5 41.5t-99.5 -41.5t-41.5 -99.5t41.5 -99.5t99.5 -41.5zM276 197q2 -1 2 -5t-2 -5l-120 -69h-3q-5 0 -5 4v138v1q0 6 5 6q1 0 3 -1z " />
<glyph unicode="&#xf197;" horiz-adv-x="415" d="M389 35h-364q-10 0 -17.5 7.5t-7.5 18.5v262q0 11 7.5 18.5t17.5 7.5h364q11 0 18.5 -7.5t7.5 -18.5v-262q0 -11 -7.5 -18.5t-18.5 -7.5zM364 86v212h-313v-212h313zM283 191l-61 -36l-61 -35v71v70l61 -35z" />
<glyph unicode="&#xf198;" horiz-adv-x="276" d="M276 192q0 -7 -5 -10l-254 -146q-4 -2 -6 -2q-9 0 -11 10v293v1q0 12 11 12q3 0 7 -2l252 -146q6 -3 6 -10z" />
<glyph unicode="&#xf199;" horiz-adv-x="371" d="M362 245q9 0 9 -10v-86q0 -4 -3 -7t-6 -3h-124v-123q0 -4 -3 -7t-6 -3h-87q-3 0 -6 3t-3 7v123h-124q-3 0 -6 3t-3 7v86q0 10 9 10h124v123q0 10 9 10h87q9 0 9 -10v-123h124z" />
<glyph unicode="&#xf19a;" horiz-adv-x="221" d="M221 75q0 -3 -2 -5q-20 -20 -61 -20q-19 0 -41.5 9t-33.5 9q-20 0 -48 -16h-2q-3 0 -5 3h-1l-14 30v0v2q0 3 3 5v1q45 21 45 51q0 10 -5 22h-50v0q-6 0 -6 5v22q0 6 6 6v0h28q-19 27 -19 50q0 37 30.5 61t69.5 24q71 0 96 -50q1 -1 1 -3q0 -3 -3 -5l-37 -22v0h-2 q-4 0 -6 3q-12 29 -42 29q-18 0 -30.5 -10.5t-12.5 -27.5q0 -16 20 -49h60q5 0 5 -5v-22q0 -6 -5 -6h-47q0 -1 0.5 -4t0.5 -4q0 -30 -27 -46q12 4 20 4q12 0 28 -7t26 -7q24 0 35 15q2 2 5 2t5 -4v0l15 -37v-1q1 -1 1 -2z" />
<glyph unicode="&#xf19b;" horiz-adv-x="384" d="M328 332q56 -56 56 -135t-56 -135.5t-136 -56.5t-136 56.5t-56 135.5q0 77 53 132q4 6 10 6q4 0 7 -3h1l21 -19v-1v0q4 -4 4 -7q0 -5 -4 -9q-41 -43 -41 -99q0 -59 41.5 -100t99.5 -41t99.5 41t41.5 100q0 58 -40 98q-5 3 -5 10q0 4 3 7v0v1l21 19h1q3 3 7 3q5 0 8 -3z M178 127q-11 0 -11 11v0v230v0q0 11 11 11h28v0q11 0 11 -11v0v-230v0q0 -11 -11 -11v0h-28v0v0z" />
<glyph unicode="&#xf19c;" horiz-adv-x="397" d="M388 313q9 0 9 -8v-226q0 -8 -9 -8q-4 0 -6 2l-146 84v-78q0 -8 -8 -8q-4 0 -6 2l-171 99v-119v-2q0 -13 -13 -13l-1 1h-23h-1q-11 0 -13 11v2v0v280q0 13 13 13v1h25q13 0 13 -13v-1v-120l170 99q2 2 7 2q8 0 8 -8v-78l146 84q2 2 6 2z" />
<glyph unicode="&#xf19d;" horiz-adv-x="325" d="M324 109q5 -9 -4 -14l-166 -96q-9 -6 -15 4v1l-137 238h-1q-1 2 -1 6v65q0 6 5 9l109 63v0l1 1q5 2 9 -1l57 -32q3 -1 4 -4h1l137 -239zM93 298q7 4 9 12t-2 15t-12 9t-15 -2t-9 -12t2 -15t12 -9t15 2z" />
<glyph unicode="&#xf19e;" horiz-adv-x="395" d="M393 100q6 -10 -3 -15l-167 -96q-9 -5 -14 4v1l-7 12l153 88q10 6 4 15v0l-104 179l-45 79l41 -24q3 -1 4 -4l138 -238v-1zM320 104l-166 -96q-9 -6 -15 4v1l-137 238h-1q-1 2 -1 7v65q0 6 5 9l109 62v1h1q5 2 9 -1v1l57 -33q3 -1 4 -4h1l137 -239h1q6 -9 -4 -15zM93 307 q7 4 9 12t-2 15t-12 9t-15 -2t-9 -12t2 -15t12 -9t15 2z" />
<glyph unicode="&#xf19f;" horiz-adv-x="414" d="M414 268v-188q0 -10 -9 -10h-67v79h-26h-210h-25v-79h-68q-9 0 -9 10v188q0 9 9 9h68v110q0 10 9 10h242q10 0 10 -10v-110v0h67q9 0 9 -9zM312 235v127q0 9 -9 9h-192q-9 0 -9 -9v-127h210zM103 -3v126h209v-126q0 -10 -10 -10h-190q-9 0 -9 10z" />
<glyph unicode="&#xf1a0;" horiz-adv-x="384" d="M192 384q80 0 136 -56t56 -136t-56 -136t-136 -56t-136 56t-56 136t56 136t136 56zM192 51q50 0 90 33l-198 198q-33 -40 -33 -90q0 -58 41.5 -99.5t99.5 -41.5zM300 102q33 40 33 90q0 58 -41.5 99.5t-99.5 41.5q-50 0 -90 -33z" />
<glyph unicode="&#xf1a1;" horiz-adv-x="391" d="M391 363v-32q0 -9 -9 -9h-373q-9 0 -9 9v32q0 10 9 10h373q9 0 9 -10zM359 296q9 0 9 -9v-190q0 -8 -6 -14.5t-15 -6.5h-139v-27q8 -6 8 -17q0 -9 -6 -15t-15 -6t-15 6t-6 15q0 10 9 17v27h-139q-9 0 -15.5 6.5t-6.5 14.5v190v0q0 9 9 9h328z" />
<glyph unicode="&#xf1a2;" horiz-adv-x="293" d="M293 198v0v-3h-1q-2 -8 -11 -8v-1q-8 2 -13 2q-21 0 -35.5 -14.5t-14.5 -35.5t14.5 -35.5t35.5 -14.5q5 0 13 2v-1q10 0 12 -10v-67q0 -8 -6.5 -14t-14.5 -6h-65q-5 0 -8.5 4t-3.5 8q0 3 1 4q2 8 2 14q0 21 -14.5 35.5t-35.5 14.5t-35.5 -14.5t-14.5 -35.5q0 -6 2 -14v-1 v-1l1 -2q0 -12 -11 -12h-68h-2q-8 0 -14 6t-6 14v1v66v2q0 5 4 8.5t8 3.5q1 0 4 -1q8 -4 19 -4q21 0 35.5 14.5t14.5 35.5t-14.5 35.5t-35.5 14.5q-12 0 -20 -4h-1l-2 -1q-4 0 -8 3.5t-4 8.5v68v1q0 8 6 14.5t14 6.5h75q11 1 18 8.5t7 18.5t-5 17q-6 9 -6 21q0 17 13 29.5 t30 12.5t29.5 -12.5t12.5 -29.5q0 -12 -6 -21h1q-6 -8 -6 -17q0 -11 7 -18.5t18 -8.5h1h1h1h62v-1q8 0 14 -6t6 -14v-66z" />
<glyph unicode="&#xf1a3;" horiz-adv-x="435" d="M52 224q15 0 25 -10.5t10 -26.5q0 -17 -12.5 -29t-28.5 -12q-19 0 -32.5 14.5t-13.5 38.5q0 58 53 96q1 0 3 1q1 0 3 -2l22 -13q2 -1 2 -5t-3 -5v0q-30 -17 -39 -48q2 1 11 1zM157 224q15 0 25 -10.5t10 -26.5q0 -17 -12 -29t-29 -12q-19 0 -32.5 14.5t-13.5 38.5 q0 58 53 96h1q1 0 1 0.5t1 0.5q2 0 4 -2l21 -13q3 -1 3 -5q0 -3 -4 -5v0q-29 -16 -38 -48q2 1 10 1zM284 238q19 0 32.5 -14.5t13.5 -38.5q0 -58 -53 -96q-1 0 -3 -1q-1 0 -3 2l-22 13q-2 1 -2 5t3 5v0q30 17 39 48q-2 -1 -10 -1q-15 0 -25.5 10.5t-10.5 26.5q0 17 12.5 29 t28.5 12zM389 238q19 0 32.5 -14.5t13.5 -38.5q0 -58 -53 -96l-1 -1h-1q-2 0 -4 2l-21 13q-3 1 -3 5t3 5h1q29 16 38 48q-2 -1 -10 -1q-15 0 -25 10.5t-10 26.5q0 17 12 29t28 12z" />
<glyph unicode="&#xf1a4;" horiz-adv-x="380" d="M190 382q79 0 134.5 -55.5t55.5 -134.5t-55.5 -134.5t-134.5 -55.5t-134.5 55.5t-55.5 134.5t55.5 134.5t134.5 55.5zM190 130q26 0 44 18t18 44t-18 44t-44 18t-44.5 -18.5t-18.5 -43.5t18.5 -43.5t44.5 -18.5z" />
<glyph unicode="&#xf1a5;" horiz-adv-x="355" d="M354 337l1 -137q0 -4 -4 -6q-5 -2 -7 -1l-130 44q-5 2 -5 6q0 5 3 8l31 22l5 3q-30 23 -66 23q-44 0 -76 -31.5t-32 -75.5t32 -75.5t76 -31.5q58 0 89 47q6 8 13 3l45 -32q4 -2 4 -6t-1 -6q-25 -37 -65.5 -58.5t-85.5 -21.5q-75 0 -128 53t-53 128t53 128t128 53t128 -53 l2 2l31 22q2 2 8 0q4 -1 4 -7z" />
<glyph unicode="&#xf1a6;" horiz-adv-x="471" d="M123 210q1 -1 2.5 -5t2.5 -5l-53 -24q-23 -12 -23 -39v-56h-41q-11 0 -11 13v54q0 8 7 12l69 32q-28 18 -28 52q0 25 15 42t36 17q11 0 21 -5q-2 -3 -4 -13q-4 -13 -4 -28q0 -25 11 -47zM287 270q-1 2 -1.5 6.5t-0.5 6.5q-4 19 -18 38h195v0q9 0 9 -9v-33q0 -9 -9 -9v0 h-175zM471 108v-33q0 -9 -9 -9v0h-114v4v11v36h114v0q9 0 9 -9zM462 219q9 0 9 -9v-33q0 -9 -9 -9v0h-126q-5 5 -11 8l-53 25q1 2 3.5 5.5t3.5 5.5q1 1 1 3.5t1 3.5h181v0zM314 153q9 -5 9 -16v-56v-11q0 -16 -14 -16h-218q-14 0 -14 16v11v56q0 12 9 16l61 28l24 11 q-15 10 -25 29q-9 20 -9 36q0 11 3 21q6 23 22.5 37.5t37.5 14.5q22 0 38.5 -15t21.5 -38q3 -9 3 -20q0 -18 -8 -34q-9 -20 -25 -30l25 -12z" />
<glyph unicode="&#xf1a7;" horiz-adv-x="431" d="M431 336v-33q0 -9 -9 -9v0h-235q-9 0 -9 9v33v0v0q0 9 9 9h235v0q9 0 9 -9zM431 259v-32q0 -10 -9 -10v0h-235q-9 0 -9 10v32v0v0q0 9 9 9h235v0q9 0 9 -9zM127 336v-109v0q0 -10 -9 -10v0h-109q-9 0 -9 10v0v109q0 9 9 9h1h108q9 0 9 -9zM431 157v-32q0 -9 -9 -9v0h-235 q-9 0 -9 9v32v0v0q0 9 9 9v1h235v-1q9 0 9 -9zM431 81v-33q0 -9 -9 -9v0h-235q-9 0 -9 9v1v32v0v0q0 9 9 9h235v0q9 0 9 -9zM127 157v-109v0q0 -9 -9 -9h-109q-9 0 -9 9v0v109q0 10 9 10l1 -1h108v1q9 0 9 -10z" />
<glyph unicode="&#xf1a8;" horiz-adv-x="406" d="M351 197q-3 -3 -7 -1l-131 42q-5 2 -5 6t3 7l30 23l5 4q-29 21 -67 21q-44 -1 -75 -33t-30 -76t33.5 -75t76.5 -30h10v0q5 0 9.5 -4t4.5 -9v0l1 -47q0 -5 -4 -9v0v-1l-2 -1q-1 0 -1 -0.5t-1 -0.5l-5 -2h-11q-75 -1 -129 51t-56 127q-1 75 51 128.5t127 55.5q76 2 129 -50 l2 1l30 23q3 3 8 1q4 -1 4 -7l3 -138q0 -3 -3 -6zM291 142h18l2 -99h-21l-1 72l-16 -17l-13 12zM365 145q20 1 30.5 -14t10.5 -36t-9.5 -36t-29.5 -16t-31 14t-11 36t10 36t30 16zM366 61q19 0 19 33q0 32 -20 32q-19 0 -19 -33q0 -32 20 -32z" />
<glyph unicode="&#xf1a9;" horiz-adv-x="372" d="M363 313q9 0 9 -8v-226q0 -8 -9 -8q-4 0 -6 2l-145 84v-78q0 -8 -9 -8q-4 0 -6 2l-192 111q-5 2 -5 8q0 4 4 7v1l192 111q2 2 7 2q9 0 9 -8v-78l145 84q2 2 6 2z" />
<glyph unicode="&#xf1aa;" horiz-adv-x="339" d="M48 115q19 0 32 -13t13 -32t-13 -31.5t-32 -12.5t-32 12.5t-13 31.5t13 32t32 13zM34 239q76 0 129.5 -53t54.5 -129v-18q-2 -13 -16 -15v-1h-31q-16 0 -18 16v18q-1 49 -35.5 83.5t-83.5 34.5h-1h-17q-14 2 -16 15v32q0 15 16 17h17h1zM339 57v0v-18q-2 -13 -15 -15v-1 h-32q-15 0 -17 16v18q-1 99 -71.5 169t-169.5 70h-1h-17q-14 2 -16 16v31q0 15 16 17v1h17h1q126 0 215 -89t90 -215z" />
<glyph unicode="&#xf1ab;" horiz-adv-x="482" d="M482 28v-2q0 -12 -13 -12v0h-457q-12 0 -12 12v1v25q0 12 12 12h39l169 293q6 13 21 13t21 -13l169 -293h38q13 0 13 -12v0v-24zM228 319l-29 -51h84l-29 51h-26zM169 217l-29 -51h202l-29 51h-144zM81 64h320l-30 51h-261z" />
<glyph unicode="&#xf1ac;" horiz-adv-x="379" d="M204 251v110h53v-110h-53zM375 350q4 -4 4 -9v-1v-324v0q0 -12 -12 -12h-39v169q0 11 -12 11v0v0h-253h-1h-1q-10 -2 -10 -11v-1v0v-156v-12h-39q-12 0 -12 12v168v49v135q0 12 12 12v0h67q3 0 5 -2t2 -3v-130q0 -5 4 -8.5t8 -3.5h175h1q13 0 13 12v130q0 2 2 4q1 1 4 1 v0h46q5 0 9 -4z" />
<glyph unicode="&#xf1ad;" horiz-adv-x="358" d="M298 252q25 0 42.5 -17.5t17.5 -42.5t-17.5 -42.5t-42.5 -17.5q-7 0 -21 4l-157 -91v-3q0 -25 -17.5 -43t-42.5 -18t-42.5 18t-17.5 43t17.5 42.5t42.5 17.5q19 0 36 -12l144 84q-2 6 -2 18t2 18l-145 84q-17 -12 -35 -12q-25 0 -42.5 17.5t-17.5 42.5t17.5 43t42.5 18 t42.5 -18t17.5 -43v-4l156 -90q9 4 22 4z" />
<glyph unicode="&#xf1ae;" horiz-adv-x="384" d="M356 130q11 0 19.5 -8t8.5 -19t-8.5 -19.5t-19.5 -8.5q-16 0 -24 15h-80l-35 -61q3 -6 3 -12q0 -11 -8 -19.5t-19 -8.5t-19.5 8.5t-8.5 19.5q0 7 3 13l-34 60h-78q-9 -12 -23 -12q-11 0 -19 8t-8 19t8 19.5t19 8.5q5 0 7 -1l35 60l-35 60q-6 -3 -12 -3q-11 0 -19.5 8.5 t-8.5 19.5t8.5 19t19.5 8q16 0 24 -14h79l37 63q-5 7 -5 14q0 11 8.5 19.5t19.5 8.5t19 -8.5t8 -19.5q0 -10 -4 -15l36 -62h78q9 12 22 12q11 0 19.5 -8.5t8.5 -19.5t-8.5 -19t-19.5 -8q-5 0 -7 1l-34 -60l35 -60q4 2 12 2z" />
<glyph unicode="&#xf1af;" horiz-adv-x="344" d="M172 394l172 -99v-118q-1 -73 -50.5 -126.5t-121.5 -61.5q-72 8 -121.5 61.5t-50.5 126.5v118l172 100v-1zM172 41q51 8 85.5 46t35.5 90v6h-121v152l-121 -70v-82h121v-142z" />
<glyph unicode="&#xf1b0;" horiz-adv-x="441" d="M441 250v-216q0 -8 -6 -14t-14 -6v0h-401q-8 0 -14 6t-6 14v216q2 18 20 18h31q24 46 70 74t100 28t99.5 -28t69.5 -74h31q18 0 20 -18zM112 268h217q-43 51 -108 51q-66 0 -109 -51z" />
<glyph unicode="&#xf1b1;" horiz-adv-x="425" d="M95 33q0 30 30 30q31 0 31 -30t-31 -30q-30 0 -30 30zM307 33q0 30 30 30t30 -30t-30 -30t-30 30zM333 165h-200v-25h270q6 0 12 -6q5 -5 5 -12v-15v-1v-2q-1 -13 -17 -15h-303v0q-7 0 -12 5q-6 6 -6 12v224h-63v0h-1q-8 0 -13 5t-5 13v17q2 8 6 12t12 4h1h97v0 q7 0 12 -5t5 -13v-33h54h146h75q7 0 12 -5t5 -13q0 -5 -1 -7l-75 -130q-4 -10 -16 -10z" />
<glyph unicode="&#xf1b2;" horiz-adv-x="462" d="M74 129l44 45l55 -55l-54 -54q-7 -12 -21 -12h-87q-8 2 -10 10h-1v56h1q2 11 12 11h1l2 -1h58zM460 290q2 -1 2 -5t-2 -5l-95 -69q-3 -2 -7 0t-4 6v30h-53l-38 -37l-54 54l54 54q8 6 15 6h76v29q0 4 4 6q2 1 6 -1zM459 104q3 -2 3 -5t-3 -5l-95 -68q-4 -2 -7 -1t-3 6v29 h-77q-6 0 -14 6l-189 189h-58l-1 -1h-2q-11 0 -13 11v56q2 8 11 10h87q14 0 21 -12l182 -182h53v30q0 5 3 6q3 2 7 0z" />
<glyph unicode="&#xf1b3;" horiz-adv-x="399" d="M390 78q9 -9 9.5 -21.5t-8.5 -21.5q-11 -11 -27 -8q3 -15 -8 -26q-9 -9 -21 -8.5t-21 9.5q-20 20 -1 41l-45 45v-31q-30 -24 -68 -24q-39 0 -69 24v31l-45 -45q8 -9 8 -21t-9 -21t-21 -9t-21 9q-11 11 -8 26q-14 -3 -26 9q-9 9 -9 21t9 21q22 20 42 1l46 46 q-20 29 -20 67t20 67l-46 46q-9 -8 -21 -8t-21 9t-9 21.5t9 21.5q11 11 26 8q-3 15 8 26q9 9 21.5 8.5t21.5 -9.5q20 -20 1 -41l46 -46q29 20 67 20t67 -20l46 46q-19 20 1 42q9 9 21 9t21 -9q12 -12 9 -26q13 3 25 -9q9 -9 9 -21t-9 -21q-20 -20 -41 -1l-46 -46 q20 -29 20 -67t-20 -67l46 -46q20 18 41 -1zM166 146q10 0 17 6.5t7 16.5t-7 17t-17 7t-16.5 -7t-6.5 -17t6.5 -16.5t16.5 -6.5zM233 146q10 0 17 6.5t7 16.5t-7 17t-17 7t-16.5 -7t-6.5 -17t6.5 -16.5t16.5 -6.5z" />
<glyph unicode="&#xf1b4;" d="M262 227q14 0 23 -10q9 -11 9 -23q0 -14 -8 -24q-8 -9 -23 -9q-7 0 -15 3q-10 4 -14 7q-12 9 -13 10q-8 8 -11 12l11 11q8 8 12 11q10 7 14 9q7 3 15 3zM151 204l11 -11q-6 -8 -10 -12q-1 -1 -13 -10q-4 -3 -14 -7q-7 -3 -15 -3q-14 0 -23 9q-8 8 -8 23q0 13 8 24 q7 10 22 10q7 0 15 -3q3 -1 8 -4.5t6 -4.5q5 -3 13 -11zM333 376q15 0 25.5 -10.5t10.5 -25.5v-296q0 -15 -10.5 -25.5t-25.5 -10.5h-297q-15 0 -25.5 10.5t-10.5 25.5v296q0 15 10.5 25.5t25.5 10.5h297zM326 166q5 15 5 29q0 13 -5 28t-13 23t-22 15q-12 6 -28 6 q-15 0 -24 -4q-10 -4 -20 -11t-17 -15q-3 -3 -8.5 -9t-7.5 -9q-2 3 -7.5 9t-8.5 9q-7 8 -17 15t-20 11q-9 4 -24 4q-17 0 -29 -6t-21 -15q-8 -8 -13 -23t-5 -29t5 -29q4 -14 14 -23q9 -9 21 -15t29 -6q15 0 24 4q15 7 19 9q6 4 17 15l16 16q7 -9 16 -16q2 -2 5.5 -5 t6.5 -5.5t6 -4.5q2 -1 20 -9q9 -4 23 -4q15 0 28 6q15 7 22 15q8 10 13 24z" />
<glyph unicode="&#xf1b5;" d="M232 355h137v-326zM0 355h136l-136 -326v326zM125 94l59 141l87 -206h-57l-26 65h-63z" />
<glyph unicode="&#xf1b6;" horiz-adv-x="377" d="M199 264h7h1q1 1 2 1q0 3 -0.5 14t-1.5 17q-3 19 -24 22q-16 2 -29 -6t-17 -23q-3 -9 -13 -8q-6 1 -19 2.5t-20 2.5q-12 1 -9 13q9 41 47 58q58 26 113 1q37 -16 39 -58q2 -69 1 -104q0 -31 17 -51q7 -8 -1 -15q-6 -4 -17 -14t-16 -15q-10 -8 -17 1q-4 5 -12 14t-13 13 q-2 -2 -5 -4.5t-6.5 -5t-5.5 -4.5q-29 -24 -70 -19q-29 3 -45.5 21.5t-17.5 48.5q-2 67 66 87q26 7 66 11zM198 163q10 15 10 64q-22 -2 -33 -4q-41 -8 -38 -50q1 -15 10.5 -23t23.5 -6q17 3 27 19zM318 85q9 3 14 -5t-3 -14q-10 -7 -22 -14q-62 -36 -126 -38q-68 0 -123 38 q-11 8 -30 23.5t-23 18.5q-8 6 -3 13q5 6 13 2q9 -5 27 -14.5t27 -13.5q48 -24 89 -28q38 -3 77 5q37 7 78 25q1 1 2.5 1t2.5 1zM357 124q13 -1 17 -5.5t2 -18.5q-3 -29 -22 -49q-4 -4 -5 -4q-8 0 -9 1q-4 4 -2 9q1 4 3.5 11.5t3.5 11.5q1 2 2 6.5t1 6.5q2 6 -4 6h-10 q-4 -1 -12.5 -2t-13.5 -1q-7 -1 -10 4q-3 7 4 12q22 15 55 12z" />
<glyph unicode="&#xf1b7;" horiz-adv-x="338" d="M223 355q57 -29 57 -89h-222q0 60 57 89l-18 32q-1 2 2 4q3 1 4 -1l18 -32q25 10 48 10t48 -10l18 32q1 2 4 1q3 -2 2 -4zM118 307q10 0 10 9t-10 9q-9 0 -9 -9t9 -9zM220 307q9 0 9 9t-9 9q-10 0 -10 -9t10 -9zM338 238v-103q0 -11 -7 -18t-18 -7q-10 0 -17 7t-7 18v103 q0 11 7 18t17 7q11 0 18 -7.5t7 -17.5zM279 258v-160q0 -15 -13 -23q-6 -3 -13 -3h-18v-55q0 -11 -7.5 -18t-17.5 -7q-1 0 -2.5 0.5t-2.5 0.5q-19 3 -19 24v55h-34v-55q0 -21 -19 -24q-1 0 -2.5 -0.5t-2.5 -0.5q-20 0 -24 20q0 1 -0.5 2.5t-0.5 2.5v55h-18q-17 0 -23 14 q-3 6 -3 12v160h220zM25 263q10 0 17 -7t7 -18v-103v-5q-4 -20 -24 -20q-9 0 -14 4q-11 6 -11 21v103q0 10 7 17.5t18 7.5z" />
<glyph unicode="&#xf1b8;" horiz-adv-x="352" d="M340 259q-51 -29 -46 -86t58 -77q-12 -25 -27 -49q-39 -60 -71 -60q-12 0 -32 9t-39 9t-38.5 -9t-31.5 -9q-34 0 -71 56q-35 54 -40.5 113.5t17.5 92.5q33 52 86 52q17 0 41.5 -9t36.5 -9t35 9t43 9q45 0 79 -42zM233 330q-26 -34 -63 -32q-5 33 21 65q26 31 62 34 q5 -34 -20 -67z" />
<glyph unicode="&#xf1b9;" horiz-adv-x="365" d="M255 160q10 0 15 -5q6 -6 6 -14h-45q6 19 24 19zM140 136q14 0 14 -18t-16 -18h-41v36h43zM331 376q25 0 34 -24v-320q-6 -19 -26 -24h-312q-20 5 -27 25v318q7 25 34 25h297zM220 220v-19q0 -2 2 -2h64q3 0 3 2v19q0 3 -3 3h-64q-2 0 -2 -3zM193 115q0 20 -11 32 q-6 6 -10 7q15 9 15 29q0 43 -46 43h-80q-3 0 -3 -2v-155q0 -2 3 -2h81q15 0 27 6q24 13 24 42zM312 117q0 37 -14 53q-15 17 -42 17q-40 0 -55 -31q-4 -7 -5.5 -14.5t-1.5 -11.5v-5q0 -28 15 -44q17 -18 46 -18h3q9 0 18.5 1.5t22 12.5t12.5 30q0 3 -2 3h-28q-2 0 -2 -1v-2 q0 -4 -4 -8q-6 -6 -19 -6q-7 0 -14 4q-8 6 -10 18h77q3 0 3 2zM148 181q0 -16 -11 -16h-40v30h37h6q8 -1 8 -14z" />
<glyph unicode="&#xf1ba;" horiz-adv-x="388" d="M95 160q0 69 100 69q99 0 99 -69q0 -70 -99 -70q-100 0 -100 70zM333 252q63 -44 54 -105q0 -24 -15 -45q-15 -22 -40 -36q-29 -17 -61 -25q-36 -9 -77 -9q-43 0 -79 9q-58 22 -86 50q-29 29 -29 82v179h58v-99q59 40 149 39q74 -5 126 -40zM211 64q49 2 84 34 q36 33 33 66q-1 20 -13 38q-10 16 -26 27q-11 8 -33 17q-10 4 -34 9q-10 2 -28 2q-67 -3 -101 -33t-31 -66q3 -34 28 -58q24 -22 54 -30t67 -6z" />
<glyph unicode="&#xf1bb;" d="M308 376q25 0 43 -18t18 -43v-246q0 -25 -18 -43t-43 -18h-247q-25 0 -43 18t-18 43v246q0 25 18 43t43 18h247zM296 151v58v3l-2 4l-3 2q-2 1 -15 1.5t-16 3.5q-4 4 -6 20t-6 24q-7 15 -24 26t-31 13h-50q-29 0 -50.5 -21.5t-21.5 -50.5v-83q0 -29 21.5 -50t50.5 -21h82 q29 0 50 21t21 50zM144 220q-6 0 -10 4.5t-4 9.5q0 13 14 13h39q14 0 14 -13q0 -5 -4 -9.5t-10 -4.5h-39zM224 166q5 0 9.5 -4.5t4.5 -9.5t-4.5 -9t-9.5 -4h-80q-14 0 -14 13q0 5 4 9.5t10 4.5h80z" />
<glyph unicode="&#xf1bc;" horiz-adv-x="348" d="M174 192h174v-174h-174v174h-174v174h174v-174z" />
<glyph unicode="&#xf1bd;" d="M270 254h31v-57v-71h-28l-50 78l2 -78h-32v84v44h1h4h23l3 -5l47 -76zM333 376q15 0 25.5 -10.5t10.5 -25.5v-131l-63 50h-5h-31h-5v-5v-29l-39 31v1l-2 2h-3h-28h-5v-5v-40l-13 11q-1 2 -3 4.5t-3 3.5q-6 9 -17 16q-17 10 -43 10h-43h-3h-2h-5v-2v-10v-124l143 -115 h-163q-15 0 -25.5 10.5t-10.5 25.5v296q0 15 10.5 25.5t25.5 10.5h297zM137 251q3 0 5 -2v0q0 -1 2 -1q1 0 2 -1q0 -1 2 -1t2 -1t2 -2l2 -1q0 -1 1 -1l2 -2l2 -2l1 -1l2 -2v0l1 -2q1 -2 2 -2q12 -17 12 -40q0 -29 -16.5 -46.5t-43.5 -17.5h-51v123v5h20h5h18h3q14 0 25 -3z M144 189q0 36 -31 36h-14v-70h14q31 0 31 34z" />
<glyph unicode="&#xf1be;" d="M166 219l45 -93l129 35v-118l-2 -2q-2 -2 -3 -2h-303q-1 0 -3 2q-1 1 -1 2v31l169 48l-48 101q62 13 97.5 8t67.5 -31q7 -7 0 -9l-67 -16l-25 50q-29 5 -56 -6zM335 348h1l2 -1q2 -2 2 -3v-105l-1 1q-39 17 -87.5 21.5t-76 1.5t-42.5 -8l-15 33h-56l20 -46 q-28 -9 -54 -30v132q0 1 2 3l1 1h1h303zM68 131q-6 -1 -9 0.5t-3 3.5v2q-1 25 8 42.5t17.5 23t15.5 7.5l31 -63q-47 -13 -60 -16zM338 376q13 0 22 -9t9 -22v-306q0 -13 -9 -22t-22 -9h-307q-13 0 -22 9t-9 22v306q0 13 9 22t22 9h307zM350 43v301q0 14 -15 14h-303 q-14 0 -14 -14v-301q0 -14 14 -14h303q15 0 15 14z" />
<glyph unicode="&#xf1bf;" horiz-adv-x="436" d="M436 253v-173q0 -6 -6 -6h-106q-5 0 -5 5v23q0 5 5 5h62q5 0 5 5v16h-5h-62q-5 0 -5 6v120q0 5 5 5h107h4q0 -1 0.5 -3t0.5 -3zM387 161q4 0 4 5v49v11h-25q-2 0 -2 -4v-57q0 -4 4 -4h19zM300 259q5 0 5 -5v-175v-5h-5h-106q-5 0 -5 5v28h5h62q5 0 5 5v11q0 6 -6 6 q-10 0 -30 -0.5t-31 -0.5q-5 0 -5 6v120q0 5 5 5h106zM261 164v59q0 3 -3 3h-25q0 -11 0.5 -31.5t0.5 -30.5q0 -3 2 -3h22q3 0 3 3zM72 305v5h44v-193h-4h-107q-5 0 -5 5v132q0 5 5 5h61q6 5 6 6v40zM67 150q5 0 5 5v66v5h-27v-74q0 -2 3 -2h19zM171 259q4 0 4 -3v-137v-2 h-26h-14q-4 0 -4 5v94v38q0 5 4 5h36zM134 276q-3 0 -3 3v31h44v-17v-13q0 -4 -3 -4h-38z" />
<glyph unicode="&#xf1c0;" horiz-adv-x="371" d="M186 378q76 0 130.5 -54.5t54.5 -131.5t-54.5 -131.5t-130.5 -54.5t-131 55t-55 131t55 131t131 55zM308 292q-3 -5 -10.5 -13.5t-29 -23.5t-48.5 -26q7 -14 10 -22q0 -2 2 -5t2 -4q51 7 110 -5q0 55 -36 99zM186 350q-22 0 -38 -4l7 -10q7 -10 14.5 -21t18.5 -28t20 -34 q56 21 83 57q-45 40 -105 40zM118 335q-72 -35 -88 -111q73 0 147 20q-8 15 -59 91zM27 192q0 -60 41 -106q53 80 129 104q1 0 3 1t3 1q-8 18 -13 27q-72 -22 -163 -22v-5zM186 33q30 0 61 13q-8 53 -33 120h-1q-40 -14 -71 -39t-40 -38t-14 -22q44 -34 98 -34zM274 60 q57 38 68 107q-5 2 -17 4.5t-35.5 4t-46.5 -2.5q18 -50 31 -113z" />
<glyph unicode="&#xf1c1;" horiz-adv-x="384" d="M144 143h240l-67 -115h-240zM376 149l-132 1l-121 208l133 -1zM120 349l66 -115l-120 -208l-66 115z" />
<glyph unicode="&#xf1c2;" horiz-adv-x="396" d="M117 376l81 -68l-117 -72l-81 64zM0 171l81 65l117 -73l-81 -68zM198 163l118 73l80 -65l-116 -76zM396 300l-80 -64l-118 72l82 68zM198 148l82 -68l35 23v-25l-117 -70l-116 70v25l35 -23z" />
<glyph unicode="&#xf1c3;" horiz-adv-x="335" d="M33 315q-13 0 -23 -5l-4 -2l1 1l73 72l-1 -2q-5 -8 -5 -19l1 -42q0 -3 -4 -3h-38zM325 322q4 -22 7.5 -83.5t1.5 -87.5q-6 -68 -18 -101q-13 -40 -27 -49t-50 -9q-43 0 -58 10t-15 43q0 34 14 42t49 7q3 0 1 -4q0 -2 -0.5 -3.5t-1 -3.5t-0.5 -4q0 -4 1 -7.5t0.5 -4.5 t-2.5 -1h-5h-5t-5 -0.5t-5 -1.5t-3.5 -2.5t-3 -4t-0.5 -5.5q0 -13 6.5 -16t27.5 -3q23 0 29 5.5t6 25.5q0 31 -7.5 41t-22.5 12q-29 3 -47 9q-22 8 -22 47q0 1 -1 1t-1 -1q0 -26 -7 -48l-3 -9q-5 -10 -15 -10.5t-24 2.5q-47 5 -79 19q-10 5 -15 16q-7 14 -14 51.5t-9 53.5 l-2 20q0 16 6 24q7 7 10 8q10 4 19 4h38q15 0 15 14q-1 9 -1 18v24q0 10 5 17q6 9 20 13q5 3 28.5 2t39.5 -7q15 -7 18 -24q36 0 55 -2q34 -4 51 -10t21 -27zM249 203q11 0 27 -6q0 28 -20 29q-11 1 -16 -6.5t-6 -17.5q5 1 15 1z" />
<glyph unicode="&#xf1c4;" d="M348 376q8 0 14.5 -6t6.5 -14v-328q0 -8 -6.5 -14t-14.5 -6h-94v142h48l7 56h-55v36q0 27 28 27h29v49q-15 3 -43 3q-32 0 -51.5 -19.5t-19.5 -54.5v-41h-48v-56h48v-142h-177q-8 0 -14 6t-6 14v328q0 8 6 14t14 6h328z" />
<glyph unicode="&#xf1c5;" d="M333 376q15 0 25.5 -10.5t10.5 -25.5v-296q0 -15 -10.5 -25.5t-25.5 -10.5h-297q-15 0 -25.5 10.5t-10.5 25.5v296q0 15 10.5 25.5t25.5 10.5h297zM110 133q25 0 42.5 17.5t17.5 42.5t-17.5 42.5t-42.5 17.5t-42.5 -17.5t-17.5 -42.5t17.5 -42.5t42.5 -17.5zM261 133 q25 0 42.5 17.5t17.5 42.5t-17.5 42.5t-42.5 17.5t-42 -17.5t-17 -42.5t17 -42.5t42 -17.5z" />
<glyph unicode="&#xf1c6;" horiz-adv-x="350" d="M350 -18h-65v1h-92v66l73 36l-9 18l-64 -33v25l43 22l-10 18l-33 -18v43h-46v-67l-33 23l-11 -16l44 -31v-73v-13h-147l175 419z" />
<glyph unicode="&#xf1c7;" horiz-adv-x="415" d="M137 239l67 -67l155 154q4 4 10 4q5 0 9 -4l33 -32q9 -10 0 -19l-197 -197q-4 -4 -10 -4v0h-1q-4 0 -8 4l-110 110q-9 10 0 19l33 32q4 4 9 4q6 0 10 -4zM399 227v-1q14 -14 14 -34t-14 -34l-158 -159q-14 -14 -34.5 -14t-34.5 14l-158 159q-14 14 -14 34t14 34l158 159 q14 14 34.5 14t34.5 -14l72 -72l-108 -107l-50 50q-12 12 -27 12t-27 -12l-32 -32q-11 -11 -11 -27t11 -27l109 -109q7 -7 18 -10l2 -1h7q16 0 27 11z" />
<glyph unicode="&#xf1c8;" d="M333 376q15 0 25.5 -10.5t10.5 -25.5v-296q0 -15 -10.5 -25.5t-25.5 -10.5h-297q-15 0 -25.5 10.5t-10.5 25.5v296q0 15 10.5 25.5t25.5 10.5h297zM215 350q-41 0 -70 -29t-29 -70q0 -56 49 -85q23 47 77 47q30 0 54 -19q18 26 18 57q0 41 -29 70t-70 29zM30 208 q0 -63 54 -98q15 36 56 36q11 0 17 -2q1 2 2.5 5.5t1.5 5.5q-25 15 -40.5 40.5t-15.5 55.5q0 41 28 72q-44 -5 -73.5 -37.5t-29.5 -77.5zM140 33q22 0 37 15t15 37t-15 37t-37 15t-37 -15t-15 -37t15 -37t37 -15zM242 50q32 0 54.5 22.5t22.5 53.5q0 32 -22.5 54.5 t-54.5 22.5q-28 0 -49 -18t-26 -45q34 -17 34 -55q0 -7 -4 -21q20 -14 45 -14z" />
<glyph unicode="&#xf1c9;" horiz-adv-x="399" d="M200 387q82 0 140.5 -58.5t58.5 -141.5q0 -65 -38 -117t-98 -72q-14 -3 -14 9v55q0 26 -13 37q41 5 66 26t25 73q0 31 -20 53q9 24 -2 53q-17 5 -55 -21q-28 7 -50 7t-50 -7q-17 12 -30.5 17t-19.5 4h-5q-11 -29 -2 -53q-21 -23 -21 -53q0 -52 25 -73t66 -26 q-9 -7 -12 -27q-39 -18 -59 17q-10 19 -30 20q-2 0 -4.5 -0.5t-5 -3t7.5 -8.5q14 -6 23 -29q0 -2 1.5 -4t6 -9t11.5 -10t19.5 -6t28.5 2v-34q0 -12 -13 -9q-60 20 -98.5 72t-38.5 117q0 83 59 141.5t141 58.5z" />
<glyph unicode="&#xf1ca;" d="M57 184q-12 9 -22 26q-17 31 -17 62q0 24 12 42q15 18 37 18q15 0 30 -10q14 -11 21 -26q17 -34 17 -67q0 -11 -1 -18q-2 -12 -9 -22q-15 -15 -37 -16q-17 0 -31 11zM91 100q-16 0 -49 -5q-22 -4 -42 -13v99q23 -23 62 -23q12 0 18 1l-3 -9q-2 -6 -2 -13q0 -13 5 -21 q3 -6 11 -16zM106 84q27 -18 46 -37q14 -16 14 -37v-1h-140q-10 0 -18 7.5t-8 18.5v15q6 8 9 11q9 7 16 10q2 1 6 2.5t6 2.5q4 1 35 7q12 1 22 1h12zM343 375q11 0 18.5 -7.5t7.5 -18.5v-28v-286q0 -11 -7.5 -18.5t-18.5 -7.5h-145q3 11 3 23q0 26 -13 46q-14 19 -30 32 l-19 15q-6 6 -9 10q-5 7 -5 14q0 8 5 16l9 12q1 1 7.5 6t9.5 8q7 7 13 16q13 19 13 48q0 13 -4 29q-5 14 -10 21q-8 12 -12 16q-3 3 -12 9h34l35 20h-111q-20 0 -48 -5q-26 -6 -49 -25q-1 -1 -2.5 -3t-2.5 -3v7v28q0 11 8 18.5t18 7.5h65h93h93h66zM363 261v29h-58v58h-28 v-58h-59v-29h59v-58h28v58h58z" />
<glyph unicode="&#xf1cb;" d="M333 376q15 0 25.5 -10.5t10.5 -25.5v-296q0 -15 -10.5 -25.5t-25.5 -10.5h-297q-15 0 -25.5 10.5t-10.5 25.5v296q0 15 10.5 25.5t25.5 10.5h297zM200 178l70 119h-31l-29 -57q-15 -30 -21 -43h-1q-9 21 -20 43l-30 57h-30l65 -119v-88h27v88z" />
<glyph unicode="&#xf1cc;" horiz-adv-x="476" d="M459 222q19 -24 16 -57q-3 -40 -30 -62q-28 -23 -71 -23q-38 0 -64 15v-10h-310v76h15v66h-15v77h116v-55q37 13 62 -6v9h29v40h88v-31l8 43h160q-1 -13 -2 -41t-2 -41zM227 272v-32h48v32h-48zM195 105v36h-16v54q0 8 -2 15.5t-11 15.5t-24 8q-28 0 -46 -28v78h-76v-37 h15v-106h-15v-36h83v36h-7v23q0 26 13 32q10 1 11 -11v-44h-8v-36h83zM290 105v36h-15v90h-76v-36h15v-54h-15v-36h91zM374 100q38 0 59.5 20t21.5 47q1 32 -15.5 47t-44.5 15q-16 0 -38 -9l2 16h81l2 48h-122l-17 -92l44 -6q8 9 18 9q20 0 18 -28q-1 -12 -7.5 -20.5 t-15.5 -8.5q-7 0 -11.5 4t-1.5 13q6 28 -24 28q-19 0 -26 -18t2 -33q17 -32 75 -32z" />
<glyph unicode="&#xf1cd;" d="M276 216q0 22 -9 40h102v-215q0 -15 -10.5 -25.5t-25.5 -10.5h-297q-15 0 -25.5 10.5t-10.5 25.5v215h102q-10 -20 -10 -40q0 -38 27 -65t65 -27t65 27t27 65zM333 379q15 0 25.5 -10.5t10.5 -25.5v-72h-111q-29 37 -74 37q-44 0 -73 -37h-111v72q0 15 10.5 25.5 t25.5 10.5h297zM29 288v72q-13 -5 -13 -20v-52h13zM51 288v74h-12v-74h12zM73 288v74h-12v-74h12zM95 340v22h-13v-74h13v22v30zM350 310v30q0 9 -6.5 15.5t-15.5 6.5h-35q-9 0 -15.5 -6.5t-6.5 -15.5v-30q0 -9 6.5 -15.5t15.5 -6.5h35q9 0 15.5 6.5t6.5 15.5zM184 135 q-34 0 -57.5 23.5t-23.5 57.5t23.5 57.5t57.5 23.5t57.5 -23.5t23.5 -57.5t-23.5 -57.5t-57.5 -23.5zM184 280q-27 0 -45.5 -18.5t-18.5 -45.5t18.5 -46t45.5 -19t46 19t19 46t-19 45.5t-46 18.5z" />
<glyph unicode="&#xf1ce;" horiz-adv-x="357" d="M340 98q22 -18 17.5 -44t-30.5 -37q-1 -1 -2.5 -2t-2.5 -1h-24q-30 12 -35 38q-49 -11 -81 22q6 6 17 16.5t16 15.5q21 -7 27 -7q18 0 25 19q6 17 -8 31q-12 12 -35 35.5t-35 35.5q-1 1 -4 3t-4 3q4 4 11 12t13 14.5t12 12.5q3 -3 15 -16.5t18 -19.5q3 -3 15 -16.5 t20 -19.5q40 -37 32 -82q19 -9 23 -13zM212 186q8 -7 21 -19t15 -14q-14 -14 -40.5 -41.5t-39.5 -40.5q-26 -26 -63 -21q-10 1 -14 -8q-6 -17 -31 -28h-22q-30 10 -38 42v10q6 34 37 42q-8 47 23 77l35 -35q-3 -3 -4 -5q-16 -23 4 -39q21 -17 39 1q24 23 72 71q4 4 6 8z M107 228q12 12 40.5 41.5t44.5 45.5q25 23 63 15h6q7 28 27 35q18 5 31 4q15 -1 25.5 -13.5t12.5 -29.5q3 -34 -41 -52q9 -46 -23 -78l-34 34q7 13 9 17q5 21 -14 31q-18 11 -35 -4l-35 -35l-44 -44zM38 275q-44 16 -35 60q7 31 41 35q34 3 53 -40q43 8 73 -22l-35 -35 q-1 2 -3 3q-21 16 -40 -4q-16 -19 2 -39q11 -12 34.5 -36t35.5 -36q2 -1 4 -4t3 -4l-10.5 -10.5l-13 -13l-11.5 -11.5q-5 6 -17 18t-17 18l-35 35q-40 37 -29 86z" />
<glyph unicode="&#xf1cf;" horiz-adv-x="417" d="M354 210q63 -15 63 -68q0 -66 -99 -66q-57 0 -85.5 22t-41.5 62l-15 48q-10 31 -24 46.5t-43 15.5q-25 0 -42 -19.5t-17 -60.5q0 -34 16 -54.5t41 -20.5q16 0 31.5 7t23.5 14l7 7l15 -42q-26 -25 -80 -25q-50 0 -77 28.5t-27 83.5q0 57 27.5 88.5t79.5 31.5 q48 0 74.5 -19.5t41.5 -65.5l16 -48q19 -60 80 -60q49 0 49 25q0 21 -32 29l-33 8q-55 14 -55 63q0 68 85 68q76 0 82 -61l-48 -6q-3 30 -37 30t-34 -26q0 -22 27 -28z" />
<glyph unicode="&#xf1d0;" d="M341 376q11 0 19.5 -7.5t8.5 -18.5v-316q0 -11 -8.5 -18.5t-19.5 -7.5h-314q-11 0 -19 7.5t-8 18.5v316q0 11 8 18.5t19 7.5h314zM109 62v176h-54v-176h54zM82 262q13 0 22.5 9.5t9.5 22.5t-9.5 22.5t-22.5 9.5t-22.5 -9.5t-9.5 -22.5q0 -14 9 -23t23 -9zM314 62v97 q0 40 -13.5 61.5t-51.5 21.5t-52 -28h-1v24h-52v-176h54v87q0 45 33 45q13 0 19.5 -8.5t7.5 -16t1 -21.5v-86h55z" />
<glyph unicode="&#xf1d1;" d="M346 376q23 -9 23 -33v-299q0 -15 -10.5 -25.5t-25.5 -10.5h-299q-25 0 -34 25v321q5 16 20 22h326zM276 241v22h-68l-22 -84h-1l-22 84h-68v-22h7q6 0 6 -6v-89q0 -6 -6 -6h-7v-21h54v21h-13v94l32 -115h24l32 115v-94h-12v-21h64v21h-7q-6 0 -6 6v89q0 6 6 6h7z" />
<glyph unicode="&#xf1d2;" horiz-adv-x="454" d="M375 187q-30 0 -51.5 21t-21.5 51t21.5 51t51.5 21t51 -21t21 -51t-21 -51t-51 -21zM147 238q0 65 65 65t65 -65t-65 -65t-65 65zM64 161q-24 0 -41 17.5t-17 41.5t17 41t41 17t41.5 -17t17.5 -41t-17.5 -41.5t-41.5 -17.5zM64 148q27 0 46 -20t19 -46v-23q0 -6 -6 -6h-2 h-113h-2q-6 0 -6 6v23q0 26 18.5 46t45.5 20zM212 159q30 0 50.5 -22.5t20.5 -51.5v-25q0 -7 -6 -7h-2h-126h-2q-7 0 -7 7v25q0 29 21 51.5t51 22.5zM375 170q34 0 56.5 -24.5t22.5 -57.5v-27q0 -8 -7 -8h-3h-139h-2q-8 0 -8 8v27q0 32 23 57t57 25z" />
<glyph unicode="&#xf1d3;" d="M185 272q34 0 58 -24t24 -58t-24 -58t-58 -24t-58 24t-24 58t24 58t58 24zM333 376q15 0 25.5 -10.5t10.5 -25.5v-296q0 -15 -10.5 -25.5t-25.5 -10.5h-297q-15 0 -25.5 10.5t-10.5 25.5v296q0 15 10.5 25.5t25.5 10.5h297zM185 66q52 0 88 36t36 88t-36 88t-88 36 t-88.5 -36t-36.5 -88t36.5 -88t88.5 -36z" />
<glyph unicode="&#xf1d4;" horiz-adv-x="348" d="M348 235q0 -62 -46.5 -99t-124.5 -38v-23q0 -47 -41 -65q-10 -5 -28 -5t-35 8v65q16 -11 28.5 -7t12.5 18v181h63v-113q15 0 31 2.5t36 10t32.5 24.5t12.5 41q0 43 -34 64t-81 21t-80.5 -22t-33.5 -63q0 -14 5.5 -30.5t12.5 -22.5l-41 -43q-17 16 -27 44t-10 52 q0 64 48.5 104t125.5 40q78 0 126 -39.5t48 -104.5z" />
<glyph unicode="&#xf1d5;" horiz-adv-x="399" d="M282 373v-133q-6 5 -77 69.5t-75 68.5q37 13 70 13q43 0 82 -18zM97 21q-59 37 -83 97q27 27 83 75v-172zM0 192q0 56 29.5 103.5t79.5 73.5q1 -1 37 -33.5t38 -34.5q-1 -1 -87.5 -79.5t-89.5 -81.5q-7 24 -7 52zM118 105h261q-23 -47 -66 -77.5t-95 -34.5h-37 q-32 3 -63 17v95zM303 362q44 -27 70 -72.5t26 -97.5q0 -33 -11 -66h-85v236z" />
<glyph unicode="&#xf1d6;" horiz-adv-x="399" d="M200 392q82 0 140.5 -58.5t58.5 -141.5t-58.5 -141.5t-140.5 -58.5q-28 0 -57 8q14 21 20 43l14 55q13 -25 49 -25q48 0 78 39t30 98q0 46 -36 80.5t-91 34.5q-66 0 -104 -38.5t-38 -86.5q0 -61 41 -77q8 -3 10 5q1 2 2.5 8.5t1.5 8.5q1 7 -3 11q-13 15 -13 39 q0 39 27 67t71 28q39 0 61 -21t22 -55q0 -45 -17.5 -75.5t-45.5 -30.5q-16 0 -26 11.5t-6 26.5q2 9 7 24.5t8 27t3 19.5q0 30 -27 30q-16 0 -27.5 -15t-11.5 -37q0 -8 2 -16t4 -11l1 -4q-22 -93 -26 -109q-5 -19 -3 -46q-54 24 -87 73.5t-33 109.5q0 82 59 141t141 59z" />
<glyph unicode="&#xf1d7;" horiz-adv-x="435" d="M424 291q18 -1 9 -25q-13 -33 -52 -47q-4 -2 -9 -3q1 -7 1 -23v-1q0 -75 -53.5 -127t-133.5 -52t-133 51.5t-53 126.5v1q0 75 53.5 127t133.5 52q23 0 53 -7v-105q-6 4 -10 5q-34 12 -67.5 -2t-51.5 -43l-1 -1q-19 -29 -9.5 -58t42.5 -40q33 -12 66.5 1.5t52.5 43.5l1 1 q12 20 12 40v145l8 -4q1 -1 3 -2.5t3 -1.5q85 -53 135 -52z" />
<glyph unicode="&#xf1d8;" horiz-adv-x="458" d="M458 197q0 -28 -25 -45q2 -10 2 -15q0 -57 -60.5 -97.5t-145.5 -40.5t-145.5 40.5t-60.5 97.5q0 11 1 16q-24 16 -24 44q0 22 15.5 37.5t37.5 15.5q18 0 34 -13q57 37 136 38l37 105l89 -22q10 27 40 27q18 0 30.5 -12.5t12.5 -30.5t-12.5 -30.5t-30.5 -12.5t-30.5 12.5 t-12.5 30.5l-75 18l-31 -85q77 -3 131 -38h1q16 13 34 13q22 0 37 -15.5t15 -37.5zM299 129q13 0 22.5 9.5t9.5 22.5q0 14 -9.5 23.5t-22.5 9.5t-23 -10t-10 -23t9.5 -22.5t23.5 -9.5zM305 73q6 6 0 12t-12 0q-20 -20 -65 -20q-20 0 -35.5 5t-21 9.5t-5.5 5.5q-6 7 -12 1 t-1 -12q25 -25 75 -25q53 0 77 24zM131 161q0 -13 9.5 -22.5t22.5 -9.5q14 0 23.5 9.5t9.5 22.5t-10 23t-23 10t-22.5 -9.5t-9.5 -23.5z" />
<glyph unicode="&#xf1d9;" horiz-adv-x="390" d="M103 162q-20 3 -44 14l275 3q-11 -5 -23 -9t-19 -6l-6 -1h-74q-5 0 -8 -4l-2 -9v-9q-4 3 -9 8.5t-8.5 9t-6.5 3.5h-75zM25 166q-4 2 -5 4q2 -1 5 -4zM39 368v-182q-6 3 -12.5 7.5t-8.5 5.5v180q0 10 10 10h332q10 0 10 -10v-180q-10 -8 -20 -13v182h-311zM388 202 q3 -2 0 -8q-9 -18 -33 -34l-51 -27q2 -6 3.5 -15t3.5 -34.5t-6 -39.5q-10 -25 -29 -36.5t-35 -11.5q-14 0 -26.5 9.5t-12.5 24.5v77q12 -2 21 -2q23 0 42 19q9 9 12.5 20.5t-2.5 14.5q-8 3 -20 -14q-15 -19 -44 -9q-3 1 -9 5v9q0 6 2 9q3 4 8 4h74q23 3 48 15l2 1q1 1 2 1 l12 6q10 5 20 13l6 3q8 3 12 0zM265 124q-19 -19 -42 -19q-9 0 -21 2l-14 4v-83q0 -15 -13 -24t-27 -9q-44 0 -63 47q-7 20 -6.5 40t3.5 34l4 15q-25 11 -51 28q-2 1 -5.5 4t-4.5 3q-3 3 -5 4q-19 16 -19 23q-3 6 0 8q4 3 13 0l4 -2q2 -1 8.5 -5.5t12.5 -7.5q2 -1 5.5 -3.5 t6.5 -3.5q1 -1 4 -2t4 -1l44 -14h75q3 0 6.5 -3.5t8.5 -9t9 -8.5q6 -4 9 -5q29 -10 44 9q12 17 20 14q6 -3 2.5 -14.5t-12.5 -20.5zM251 272q20 0 33.5 -13.5t13.5 -32.5q0 -20 -14 -33.5t-33 -13.5t-32.5 13.5t-13.5 33.5t13.5 33t32.5 13zM141 272q20 0 33.5 -13.5 t13.5 -32.5q0 -20 -14 -33.5t-33 -13.5t-32.5 13.5t-13.5 33.5t13.5 33t32.5 13z" />
<glyph unicode="&#xf1da;" horiz-adv-x="394" d="M383 150q11 -24 11 -49q0 -45 -32 -77t-77 -32q-27 0 -51 13q-16 -3 -35 -3q-78 0 -133 55t-55 133q0 14 4 38q-15 24 -15 55q0 45 32 77t77 32q32 0 58 -17q15 3 32 3q78 0 133 -55t55 -133q0 -23 -4 -40zM296 100q13 17 13 42q0 19 -8 33q-7 13 -21 22q-14 10 -32 15 q-20 6 -42 11q-16 4 -26 6l-15 6q-3 1 -11 9q-4 4 -4 11q0 11 12 18q13 8 32 8q24 0 32 -7q9 -6 17 -21q7 -12 11 -15q7 -5 16 -5q11 0 19 8t8 18q0 11 -6 21q-7 13 -18 21t-31 15q-18 6 -44 6q-34 0 -55 -8q-25 -9 -37 -26q-12 -16 -12 -38q0 -23 12 -38q10 -13 32 -23 q20 -9 49 -15q31 -7 35 -8q13 -5 20 -12t7 -17q0 -15 -14 -24q-14 -10 -38 -10q-15 0 -27 5q-10 4 -16 12q-7 9 -11 19q-5 11 -11 17q-6 5 -16 5q-13 0 -20 -7q-8 -8 -8 -18q0 -16 12 -34q12 -17 31 -27q28 -14 68 -14q34 0 58 10q25 10 39 29z" />
<glyph unicode="&#xf1db;" horiz-adv-x="390" d="M173 165q65 -25 68 -60q2 -26 -27 -35q-8 -3 -18 -3q-23 0 -45.5 8t-32.5 16l-11 8l-30 -70q27 -14 56 -23l-33 -8q-11 -3 -21.5 3.5t-13.5 17.5l-64 268q-3 12 3.5 22t17.5 13l77 19q-9 -10 -16 -26q0 -1 -0.5 -1t-0.5 -1t-1 -3t-1 -3v-1l-1 -2q-2 -4 -2 -6v-4 q0 -1 -0.5 -3t-0.5 -3v-1q-1 -1 -1 -2v-7v-3v-10q0 -2 0.5 -4.5t0.5 -3.5v-1q0 -4 2 -8q0 -1 1 -3.5t1 -3.5v-1h1q1 -1 2 -3.5t1 -3.5v-1q0 -1 2 -3t2 -3q1 0 1 -1q1 -2 5 -6v-1q1 -2 5 -6h1v-1l6 -6v-1q1 -1 3 -2t3 -2v-1q0 -1 1 -1q1 -1 3.5 -2.5t3.5 -2.5l1 -1 q21 -16 52 -27zM390 97q3 -11 -4 -21.5t-18 -13.5l-56 -14q17 26 18 56q2 50 -39 85q-1 1 -2.5 2t-2.5 2l-1 1q-1 0 -2.5 2t-2.5 2l-1 1q-1 0 -3 1.5t-3 2.5h-1q-1 1 -3 2t-3 2l-1 1h-1l-6 3h-1l-8 4h-2l-6 3q-1 0 -1 0.5t-1 0.5l-9 3q-66 22 -67 54q0 22 28 29q9 3 19 2 q24 -1 42.5 -7.5t25.5 -11.5l6 -6l24 67q-1 1 -3.5 2t-3.5 1t-1 0.5t-1 0.5q-1 1 -2.5 1t-2.5 1l-1 1h-1q-1 0 -3.5 1t-3.5 2q-1 0 -1 0.5t-1 0.5t-2 1t-2 1h-3q-2 2 -4 2h-1l-1 1q-1 1 -2.5 1h-2.5t-1 0.5t-1 0.5t-2 0.5t-2 0.5h-2q-1 0 -2.5 1t-2.5 1q-4 1 -10 2t-7 1 l56 13q12 3 21.5 -3t12.5 -18z" />
<glyph unicode="&#xf1dc;" horiz-adv-x="379" d="M302 224q1 0 5.5 2t6.5 2q14 0 20 -3q8 -4 8.5 -10.5t-6.5 -11.5q-6 -4 -24 -11q-14 -5 -16.5 -11t4.5 -19q25 -48 70 -59q9 -3 9 -6q0 -9 -6 -13q-16 -7 -35 -12q-10 -3 -12 -11q-2 -11 -5.5 -13.5t-14.5 -0.5q-34 7 -63 -14t-54 -20.5t-54 21.5q-28 20 -61 13 q-11 -2 -14.5 0.5t-6.5 13.5q-2 10 -11 11q-19 3 -34 11q-6 3 -8 13q0 5 11 8q47 13 72 66q4 10 -6 17l-9 3t-9 4q-8 4 -11 6q-14 8 -9 19q6 15 23 9q10 -4 15 -5q10 -1 10 9q-1 27 0 54q4 57 60 78q37 15 76.5 3t59.5 -47q9 -17 11 -54q0 -6 -1 -17.5t-1 -17.5 q-1 -6 2 -7.5t8 0.5z" />
<glyph unicode="&#xf1dd;" horiz-adv-x="399" d="M200 392q82 0 140.5 -58.5t58.5 -141.5q0 -52 -25 -96.5t-67 -71.5q-12 26 -33 45q-46 41 -105 41q-36 0 -70 -17q-28 -14 -47 -36q-52 57 -52 135q0 82 59 141t141 59zM294 114q8 12 -3 19q-55 38 -121 38q-41 0 -74 -13q-13 -6 -8 -17q6 -13 18 -8q28 11 64 11 q60 0 106 -33q2 -2 7 -2q7 0 11 5zM323 176q8 13 -4 20q-69 43 -149 43q-46 0 -86 -13q-15 -6 -10 -19q6 -15 19 -10q37 12 77 12q72 0 133 -38q2 -2 8 -2q8 0 12 7zM338 229q9 0 14 8q9 14 -6 23q-82 48 -176 48q-49 0 -99 -14q-17 -6 -12 -21q5 -16 21 -11q42 13 90 13 q85 0 160 -44q3 -2 8 -2zM225 16q8 -8 15 -20q-17 -4 -40 -4q-50 0 -90 21q11 11 21 16q18 9 38 9q32 0 56 -22z" />
<glyph unicode="&#xf1de;" horiz-adv-x="425" d="M420 109q10 -35 0 -65q-24 -69 -92 -78q-46 -6 -77 28q-25 28 -28 66q0 8 -1 12q-6 32 -39 27q-60 -7 -71 -7q-18 0 -38 10q-26 14 -31 48q-3 24 4 63q2 9 4 25q1 22 -21 39h4q17 -2 28 -15.5t10 -30.5q-2 -43 3 -65q2 -8 3 -11q4 -13 26 -15q15 -1 60 6q6 1 15.5 2.5 t13.5 2.5q-9 6 -25 16q-62 37 -73 104q-1 5 -3.5 14.5t-2.5 11.5q-7 39 -47 45q-16 2 -38 -1h-4q0 1 2 3q37 18 75 8q17 -5 28 -27q3 -7 13 -41q0 -2 1.5 -6t2.5 -6q9 -30 38 -44q28 -14 60 -18q4 0 4 2q0 6 -1 17t-1 16q-3 29 -32 45q-21 13 -38 27q-45 41 -35 100v2h3 q-2 -38 23 -63q8 -8 34 -21q49 -22 77 -64q10 -16 16 -44v-1q1 -2 1 -3q4 8 14 19.5t12 14.5q20 28 -4 55q-14 15 -44 28q-1 0 -3.5 1t-3.5 2q-32 12 -29 48q0 5 2 8q1 -3 2 -7.5t1 -6.5q6 -25 30 -31q44 -11 69 -34q19 -17 23 -39q3 -20 -6 -38q-2 -5 -7 -14t-7 -13 q-7 -13 0 -30q4 -9 14 -9q31 -2 54.5 -20t31.5 -48z" />
<glyph unicode="&#xf1df;" horiz-adv-x="337" d="M247 12v144h34v-179h-281v179h33l-2 -144h216zM53 35v36h169v-36h-169zM53 99l4 37l169 -17l-4 -36zM62 173l10 36l164 -46l-10 -36zM93 260l19 31l145 -87l-19 -32zM293 232l-30 -22l-98 138l29 22zM301 234l-28 167l36 6l28 -167z" />
<glyph unicode="&#xf1e0;" horiz-adv-x="497" d="M466 238q0 -15 -10.5 -25.5t-25.5 -10.5t-26 10.5t-11 25.5t11 25.5t26 10.5t25.5 -10.5t10.5 -25.5zM429 306q28 0 48 -20t20 -48t-20 -47.5t-48 -19.5l-64 -47q-2 -19 -16.5 -32.5t-33.5 -13.5q-18 0 -31.5 11.5t-17.5 28.5l-190 76q-14 -7 -26 -7q-21 0 -35.5 15 t-14.5 36t14.5 35.5t35.5 14.5q18 0 31.5 -11.5t17.5 -28.5l190 -76q14 7 26 7h5l42 60q0 28 19.5 47.5t47.5 19.5zM429 283q-19 0 -32 -13t-13 -32t13 -32t32 -13t32 13t13 32t-13 32t-32 13zM50 275q-15 0 -26 -11t-11 -26t11 -26t26 -11l4 -1q4 0 4 1l-15 7 q-11 5 -15.5 16t-0.5 22t15 15.5t23 0.5l18 -7q-10 20 -33 20zM315 166q-5 0 -8 -1l15 -6q11 -5 16 -16.5t1 -22.5t-16 -16t-23 0q-3 1 -9 3.5t-9 3.5q10 -19 33 -19q15 0 26 11t11 26t-11 26t-26 11z" />
<glyph unicode="&#xf1e1;" horiz-adv-x="399" d="M357 314q42 -55 42 -122q0 -83 -58.5 -141.5t-140.5 -58.5q-58 0 -105.5 29.5t-72.5 79.5h87q31 0 50.5 15.5t19.5 42.5q0 26 -13.5 39.5t-30 15t-30 5.5t-13.5 12q0 18 29 18h32h29q36 0 36 -22v-60q0 -31 21 -48.5t49 -17.5q29 0 49 17.5t20 48.5v147zM200 392 q61 0 112 -35v-191q0 -10 -7 -17t-17 -7t-17 7t-7 17v57q0 33 -15 49t-39 16h-98q-28 0 -46.5 -16.5t-18.5 -42.5q0 -43 45 -52q4 -1 9.5 -1.5t8 -1t6.5 -1.5l6 -1.5t4.5 -1.5t3.5 -2t2 -2.5t1.5 -3.5t0.5 -5q0 -11 -8.5 -13t-31.5 -2h-88q-6 24 -6 50q0 82 59 141t141 59z " />
<glyph unicode="&#xf1e2;" horiz-adv-x="394" d="M193 244q-59 -44 -74 -52q-8 -4 -13 -5q-20 -5 -20 -27q0 -9 6 -17t15 -10q21 -5 31 13q8 16 33 34q6 5 11 -2q2 5 6.5 14l6.5 13q1 -1 1 -2q-18 -66 -22 -77q-3 -9 -10 -13q-11 -7 -13.5 -19.5t4.5 -23.5t19 -14t23 3t15 18t-1 23q-4 6 -2 16q10 34 14 41q5 9 13 15 q9 5 16 -3q9 -11 8 -25q-2 -22 19 -29q20 -7 32 11q12 19 -2 34q-3 4 -14 16t-16 19q-24 31 -4 66q20 34 22 38q10 18 26 27q16 8 29 0q1 -1 19 -11q23 -14 23 -39v-168q0 -25 -22 -38q-130 -74 -152 -86t-45 0q-26 15 -76.5 43.5t-76.5 42.5q-22 13 -22 37v170q0 25 21 37 q51 29 155 87q20 11 42 0q4 -2 11.5 -6t11.5 -6q7 -4 9 -16q2 -19 -7 -33q-4 -6 -11 -18.5t-10 -18.5q-22 -34 -59 -40q-16 -3 -49 1q-21 2 -27 -16q-7 -20 10 -30t31 5q3 4 20 6q10 2 15 2q3 0 5 1q4 2 12 6.5t12 6.5z" />
<glyph unicode="&#xf1e3;" d="M333 376q15 0 25.5 -10.5t10.5 -25.5v-296q0 -15 -10.5 -25.5t-25.5 -10.5h-297q-15 0 -25.5 10.5t-10.5 25.5v296q0 15 10.5 25.5t25.5 10.5h297zM270 68v44q-22 -14 -42 -14q-12 0 -21 6q-7 4 -10 11q-2 5 -2 31v71h66v44h-66v70h-40q-4 -27 -9 -36q-7 -12 -19 -23 q-11 -10 -28 -16v-39h30v-97q0 -20 4 -29q4 -10 15 -19q12 -10 25 -14q17 -5 33 -5q17 0 32 3q13 3 32 12z" />
<glyph unicode="&#xf1e4;" horiz-adv-x="394" d="M394 314q-19 -27 -40 -42v-10q0 -88 -62.5 -159t-167.5 -71q-68 0 -124 36q6 -1 19 -1q56 0 101 35q-26 1 -47 16.5t-29 39.5q10 -2 15 -2q11 0 22 3q-28 5 -46.5 27.5t-18.5 51.5v2q20 -11 36 -11q-35 24 -35 68q0 23 10 40q65 -79 167 -84q-2 12 -2 18q0 34 23.5 57.5 t57.5 23.5q36 0 59 -25q28 6 51 19q-9 -29 -35 -44q23 3 46 12z" />
<glyph unicode="&#xf1e5;" d="M333 376q15 0 25.5 -10t10.5 -25v-298q0 -15 -10.5 -25t-25.5 -10h-297q-15 0 -25.5 10t-10.5 25v298q0 15 10.5 25t25.5 10h297zM309 259q2 15 0 22q-2 6 -4 8q-11 14 -42 9q-14 -2 -33 -16t-27 -39h6q21 0 25 -12q2 -8 1 -14q-1 -11 -12 -31q-15 -25 -23 -26 q-6 0 -12 6l-3 3l-2 3q-4 7 -6.5 17t-3.5 23.5t-2 18.5q-5 30 -8 37q0 5 -1 5q-6 16 -18 19q-12 4 -29 -6q-13 -8 -33.5 -25t-25.5 -21v-1q3 -1 5 -4q3 -5 8 -6t12 1.5t12.5 2t9.5 -6.5q1 -1 2 -2.5t1 -2.5h-1l1 -1v1v-1q1 -4 3.5 -11.5l3.5 -10.5q3 -9 12 -41 q10 -41 17 -52q8 -15 19 -19q14 -7 36 7q28 16 55 52q46 61 57 114z" />
<glyph unicode="&#xf1e6;" horiz-adv-x="368" d="M368 203h-205v149l205 29v-178zM149 349v-146h-149v125zM0 183h149v-148l-149 22v126zM163 33v150h205v-180z" />
<glyph unicode="&#xf1e7;" horiz-adv-x="399" d="M147 277q-37 -38 -61 -73.5t-32 -59.5t-11 -42t-1 -26l2 -9q-44 55 -44 125q0 77 54 136q34 -15 93 -51zM200 315q-36 26 -68.5 33t-47.5 2l-14 -6q56 48 130 48q73 0 129 -48q-6 3 -16 6.5t-43.5 -3t-69.5 -32.5v0zM199 233q35 -26 62.5 -54t42.5 -49t24.5 -39t12.5 -27 l3 -10q-59 -62 -144 -62q-86 0 -145 62q1 4 4 11t14.5 28t26.5 41.5t41.5 48t57.5 50.5zM399 192q0 -71 -43 -125q1 3 2 9t-1.5 26t-11 42.5t-32.5 58.5t-61 74q26 16 49.5 29t34.5 18l10 4q53 -58 53 -136z" />
<glyph unicode="&#xf1e8;" horiz-adv-x="512" d="M460 50l-53 6l6 46l53 -6zM512 328l-50 -202l-39 6l-1 207zM332 292q53 -41 53 -103q0 -64 -53 -105q-45 -33 -111 -39h-56q-68 6 -111 39q-54 40 -54 105q0 63 54 103q53 41 139 41q84 0 139 -41zM305 224l7 10h-48h-50l2 -10l30 -5q-1 -9 -46 -43q-24 29 -50 67l35 4 l2 8q-24 1 -60 0q-51 1 -54 0v-10l33 -5q13 -11 37 -40q25 -31 28 -39l1 -15v-7q0 -19 -2 -21t-15 -3l-17 -1l-2 -10h52h59l1 11l-36 1l-3 22l1 9l1 14q3 8 33 32q28 23 34 25z" />
</font>
</defs>
</svg>
