<?xml version="1.0" standalone="no"?>
<!DOCTYPE svg PUBLIC "-//W3C//DTD SVG 1.1//EN" "http://www.w3.org/Graphics/SVG/1.1/DTD/svg11.dtd" >
<svg xmlns="http://www.w3.org/2000/svg" xmlns:xlink="http://www.w3.org/1999/xlink" version="1.1">
<metadata></metadata>
<defs>
<font id="now_altbold" horiz-adv-x="1768" >
<font-face units-per-em="2048" ascent="1638" descent="-410" />
<missing-glyph horiz-adv-x="614" />
<glyph unicode="&#xfb01;" horiz-adv-x="1410" d="M28 771v253h172v346q0 162 118.5 273t283.5 111q118 0 163 -31v-256h-122q-52 0 -84 -37t-32 -99v-307h244v-253h-244v-771h-327v771h-172zM911 1375q0 74 53.5 126.5t126.5 52.5t126 -52.5t53 -126.5q0 -73 -53 -126t-126 -53t-126.5 53t-53.5 126zM927 0v1024h325 v-1024h-325z" />
<glyph unicode="&#xfb02;" horiz-adv-x="1400" d="M28 771v253h172v346q0 162 118.5 273t283.5 111q118 0 163 -31v-256h-122q-52 0 -84 -37t-32 -99v-307h244v-253h-244v-771h-327v771h-172zM922 0v1754h327v-1754h-327z" />
<glyph horiz-adv-x="0" />
<glyph horiz-adv-x="682" />
<glyph unicode=" "  horiz-adv-x="614" />
<glyph unicode="&#x09;" horiz-adv-x="614" />
<glyph unicode="&#xa0;" horiz-adv-x="614" />
<glyph unicode="!" horiz-adv-x="724" d="M182 159q0 75 53 128t126 53q76 0 129 -53t53 -128q0 -73 -53 -126t-129 -53q-73 0 -126 53t-53 126zM200 1574h325l-41 -1042h-246z" />
<glyph unicode="&#x22;" horiz-adv-x="1113" d="M182 1556h307l-41 -696h-225zM627 1556h305l-39 -696h-225z" />
<glyph unicode="#" horiz-adv-x="1756" d="M133 333l31 228h289l56 376h-291l38 225h284l49 341h228l-46 -341h332l49 341h228l-49 -341h292l-36 -225h-287l-53 -376h286l-30 -228h-287l-49 -333h-227l46 333h-338l-44 -333h-228l46 333h-289zM684 561h332l57 376h-338z" />
<glyph unicode="$" horiz-adv-x="1213" d="M41 323l279 174q43 -92 123.5 -146t183.5 -54q88 0 139 38.5t51 102.5q0 43 -24.5 76.5t-65.5 56.5t-94 43t-112 40.5t-117.5 44.5t-111.5 59.5t-94 80.5t-65.5 112.5t-24.5 151.5q0 178 101 290t257 148v159h289v-164q192 -51 318 -197l-226 -215q-122 133 -251 133 q-65 0 -106.5 -33t-41.5 -95q0 -42 24 -74.5t65 -55t94 -42t112 -40.5t117.5 -46t111.5 -63t94 -86.5t65 -122t24 -164.5q0 -175 -112 -292t-288 -151v-156h-289v161q-143 34 -253.5 120.5t-171.5 205.5z" />
<glyph unicode="%" d="M108 1178q0 157 98.5 267.5t238.5 110.5q138 0 235.5 -110.5t97.5 -267.5q0 -155 -97.5 -266t-235.5 -111q-140 0 -238.5 110.5t-98.5 266.5zM200 0l1029 1536h338l-1032 -1536h-335zM353 1178q0 -55 27.5 -94.5t64.5 -39.5q34 0 62 40t28 94q0 56 -28 95.5t-62 39.5 q-37 0 -64.5 -39t-27.5 -96zM988 358q0 156 98 266.5t238 110.5t237.5 -110.5t97.5 -266.5q0 -158 -97.5 -268t-237.5 -110t-238 110t-98 268zM1234 358q0 -56 27.5 -95.5t62.5 -39.5q36 0 64 39.5t28 95.5q0 54 -28.5 94t-63.5 40t-62.5 -39.5t-27.5 -94.5z" />
<glyph unicode="&#x26;" horiz-adv-x="1484" d="M187 1108q0 187 122.5 312.5t302.5 112.5h322v-286h-261q-63 -4 -110.5 -48.5t-47.5 -113.5q0 -81 61.5 -136.5t150.5 -55.5h207v221h328v-221h166v-271h-166v-136q0 -212 -151.5 -350.5t-386.5 -138.5q-149 0 -271 57t-193 159.5t-71 229.5q0 189 149 322 q-151 138 -151 343zM497 448q0 -73 65 -118.5t157 -45.5q100 0 157.5 56t57.5 146v136h-248q-78 0 -133.5 -52.5t-55.5 -121.5z" />
<glyph unicode="'" horiz-adv-x="670" d="M182 1556h307l-41 -614h-225z" />
<glyph unicode="(" horiz-adv-x="885" d="M141 599q0 265 32 472.5t88.5 345.5t137.5 228t174 128.5t203 38.5v-232q-76 0 -137 -51t-109.5 -161.5t-75 -305.5t-26.5 -463q0 -266 26.5 -459t75 -302.5t109 -160t137.5 -51.5v-233q-110 0 -203 38.5t-174 128t-137.5 226t-88.5 343.5t-32 470z" />
<glyph unicode=")" horiz-adv-x="885" d="M110 -374q77 1 137.5 51.5t109 160t75 302.5t26.5 459q0 268 -26.5 463t-75 305.5t-109.5 161.5t-137 51v232q110 0 202.5 -38.5t173.5 -128.5t136.5 -228t87.5 -345.5t32 -472.5q0 -263 -32 -470t-87.5 -343.5t-136.5 -226t-173.5 -128t-202.5 -38.5v233z" />
<glyph unicode="*" horiz-adv-x="785" d="M100 1183v158l200 -25l-121 159l136 81l77 -189l79 189l138 -81l-123 -159l200 25v-158l-200 28l123 -159l-138 -82l-79 187l-77 -187l-136 82l121 159z" />
<glyph unicode="+" horiz-adv-x="1635" d="M182 509v251h512v510h248v-510h510v-251h-510v-509h-248v509h-512z" />
<glyph unicode="," horiz-adv-x="629" d="M8 -364l243 633h315l-359 -633h-199z" />
<glyph unicode="-" horiz-adv-x="1036" d="M161 420v225h717v-225h-717z" />
<glyph unicode="." horiz-adv-x="693" d="M161 166q0 76 55 131.5t130 55.5q77 0 133 -55.5t56 -131.5t-56 -131t-133 -55q-75 0 -130 55t-55 131z" />
<glyph unicode="/" horiz-adv-x="1436" d="M-41 -614l1213 2368h305l-1213 -2368h-305z" />
<glyph unicode="0" horiz-adv-x="1402" d="M125 768q0 237 63 412t194 275.5t319 100.5q186 0 316.5 -100t194 -275.5t63.5 -412.5t-63.5 -412.5t-194 -275.5t-316.5 -100q-188 0 -319 100.5t-194 275.5t-63 412zM453 768q0 -240 57.5 -369.5t190.5 -129.5q67 0 115.5 35t76.5 102.5t41 156t13 205.5t-13 205.5 t-41 156t-76.5 102.5t-115.5 35q-133 0 -190.5 -129.5t-57.5 -369.5z" />
<glyph unicode="1" horiz-adv-x="855" d="M64 1247v289h561v-1536h-328v1247h-233z" />
<glyph unicode="2" horiz-adv-x="1172" d="M-36 0l602 771q115 147 147 206t32 114q0 94 -50 135t-119 41q-79 0 -128 -53.5t-38 -140.5h-318q-9 105 28 196.5t107 154.5t165 99t199 36q201 0 336 -124.5t135 -313.5q0 -130 -52.5 -232t-210.5 -300l-241 -300h533v-289h-1127z" />
<glyph unicode="3" horiz-adv-x="1259" d="M105 425l325 5q0 -61 54 -102t128 -41q89 0 143 57t54 145t-53.5 141.5t-138.5 53.5h-458l430 563h-484v289h1039l-491 -617q209 2 344 -114t135 -326q0 -208 -150.5 -353.5t-369.5 -145.5q-210 0 -358.5 130t-148.5 315z" />
<glyph unicode="4" horiz-adv-x="1313" d="M28 323l640 1213h415v-922h125v-291h-125v-323h-328v323h-727zM440 614h315v622z" />
<glyph unicode="5" horiz-adv-x="1303" d="M90 179l23 307h59q93 -118 201 -162.5t229 -44.5q120 0 194 66.5t74 169.5q0 100 -66.5 167.5t-166.5 67.5q-63 0 -129.5 -29.5t-110.5 -77.5l-259 156l67 732h891v-289h-633l-25 -308q118 105 281 105q211 0 345 -145.5t134 -366.5q0 -238 -162.5 -392.5t-415.5 -154.5 q-146 0 -295.5 56.5t-234.5 142.5z" />
<glyph unicode="6" horiz-adv-x="1359" d="M108 520q0 159 120 338l491 678h374l-366 -479q39 0 49 -2q131 -18 240 -92.5t173.5 -191.5t64.5 -251q-1 -150 -79.5 -274t-209 -194.5t-284.5 -71.5q-156 0 -288 71t-208.5 195t-76.5 274zM430 517q-2 -110 68 -184t183 -72q112 0 183.5 74t69.5 182q0 113 -70.5 188.5 t-182.5 75.5q-114 -2 -182.5 -76.5t-68.5 -187.5z" />
<glyph unicode="7" horiz-adv-x="1159" d="M69 1247v289h1060v-241l-686 -1295h-359l687 1247h-702z" />
<glyph unicode="8" horiz-adv-x="1244" d="M77 466q0 125 59 226t164 163q-131 115 -131 292q0 176 128 292.5t325 116.5q195 0 323 -117t128 -292t-128 -292q105 -62 163.5 -163t58.5 -226q0 -208 -155 -347t-390 -139t-390 139t-155 347zM407 492q0 -95 61.5 -160.5t153.5 -65.5t153.5 65.5t61.5 160.5 q0 93 -61 154t-154 61t-154 -61t-61 -154zM445 1119q0 -76 51 -127.5t126 -51.5t126 51.5t51 127.5q0 75 -51 125.5t-126 50.5t-126 -50.5t-51 -125.5z" />
<glyph unicode="9" horiz-adv-x="1359" d="M108 1016q0 150 78.5 274t209.5 194.5t285 71.5q116 0 222 -42t183 -113.5t122.5 -172t45.5 -212.5q0 -159 -120 -338l-491 -678h-374l371 479q-42 0 -54 2q-202 27 -340 179.5t-138 355.5zM425 1019q2 -113 72 -187.5t184 -76.5q114 0 183.5 75.5t67.5 188.5 q0 110 -70 184t-181 72q-114 0 -185 -73.5t-71 -182.5z" />
<glyph unicode=":" horiz-adv-x="737" d="M189 159q0 75 53.5 128t126.5 53t126 -53t53 -128q0 -73 -53 -126t-126 -53t-126.5 53t-53.5 126zM189 865q0 73 53.5 126t126.5 53t126 -53t53 -126q0 -75 -53 -128t-126 -53t-126.5 53t-53.5 128z" />
<glyph unicode=";" horiz-adv-x="757" d="M54 -364l243 633h315l-359 -633h-199zM197 865q0 73 53 126t126 53t126.5 -53t53.5 -126q0 -75 -53.5 -128t-126.5 -53t-126 53t-53 128z" />
<glyph unicode="&#x3c;" horiz-adv-x="1495" d="M182 625v289l1131 568v-266l-885 -445l885 -448v-269z" />
<glyph unicode="=" horiz-adv-x="1472" d="M120 236v204h1229v-204h-1229zM120 645v205h1229v-205h-1229z" />
<glyph unicode="&#x3e;" horiz-adv-x="1495" d="M182 54v269l886 448l-886 445v266l1131 -568v-289z" />
<glyph unicode="?" horiz-adv-x="1336" d="M192 1052q-15 151 47.5 276.5t185.5 197t279 71.5q141 0 258 -63t184 -172.5t67 -240.5q0 -87 -20 -153t-52 -104t-70.5 -65t-77.5 -45t-71 -35.5t-52 -44.5t-20 -65v-146h-292v128q0 88 20.5 149t53 92t72.5 51.5t79.5 36t72 36t53 61.5t20.5 104q0 81 -65.5 138 t-159.5 57q-115 0 -180 -77t-45 -187h-287zM530 159q0 75 53.5 128t128.5 53t127 -53t52 -128t-52 -127t-127 -52t-128.5 52t-53.5 127z" />
<glyph unicode="@" horiz-adv-x="1287" d="M120 566q0 153 73.5 281t201 202.5t278.5 74.5q182 0 307.5 -108.5t125.5 -265.5v-445h-187v38q-79 -61 -177 -61q-104 0 -177 74.5t-73 183.5q0 107 73 181.5t175 74.5q105 0 179 -66v20q0 77 -71.5 132t-174.5 55q-152 0 -259 -108.5t-107 -262.5q0 -160 115.5 -269.5 t281.5 -109.5h402v-187h-402q-161 0 -295.5 75t-211.5 205t-77 286zM709 540q0 -44 32.5 -73t80.5 -29q64 0 97 51v102q-34 52 -97 52q-48 0 -80.5 -29.5t-32.5 -73.5z" />
<glyph unicode="A" horiz-adv-x="1418" d="M-33 0l553 1536h379l553 -1536h-361l-95 289h-574l-94 -289h-361zM512 571h394l-197 609z" />
<glyph unicode="B" horiz-adv-x="1390" d="M151 0v1536h650q131 0 235 -49.5t166.5 -148t62.5 -230.5q0 -229 -190 -330q113 -44 177 -133.5t64 -224.5q0 -197 -128.5 -308.5t-327.5 -111.5h-709zM489 300h323q71 0 118.5 47t47.5 116q0 68 -48 117.5t-118 49.5h-323v-330zM489 906h271q69 0 118 49.5t49 117.5 q0 69 -49 116t-118 47h-271v-330z" />
<glyph unicode="C" horiz-adv-x="1648" d="M95 768q0 160 62.5 306t168 251.5t251.5 168t306 62.5q225 0 412 -115t287 -307l-292 -151q-56 111 -164.5 177t-242.5 66q-194 0 -324.5 -131.5t-130.5 -326.5t130.5 -326.5t324.5 -131.5q134 0 242.5 66t164.5 177l292 -151q-100 -192 -287 -307t-412 -115 q-160 0 -306 62.5t-251.5 168t-168 251.5t-62.5 306z" />
<glyph unicode="D" horiz-adv-x="1520" d="M151 0v1536h507q156 0 298 -60.5t245 -163.5t164 -245.5t61 -298.5t-61 -298.5t-164 -245.5t-245 -163.5t-298 -60.5h-507zM489 300h166q183 0 308 134.5t125 333.5t-125 333.5t-308 134.5h-166v-936z" />
<glyph unicode="E" horiz-adv-x="1192" d="M164 0v1536h924v-297h-586v-323h502v-296h-502v-323h586v-297h-924z" />
<glyph unicode="F" horiz-adv-x="1113" d="M164 0v1536h924v-297h-586v-323h502v-296h-502v-620h-338z" />
<glyph unicode="G" horiz-adv-x="1771" d="M97 768q0 160 62 306t167.5 251.5t252 168t307.5 62.5q223 0 410.5 -115.5t288.5 -306.5l-292 -151q-59 112 -166 177.5t-241 65.5q-194 0 -326 -132t-132 -326t132 -326t326 -132q140 0 252.5 73.5t167.5 195.5h-423v263h791v-74q0 -160 -62.5 -306t-168 -251.5 t-251.5 -168t-306 -62.5q-161 0 -307.5 62.5t-252 168t-167.5 251.5t-62 306z" />
<glyph unicode="H" horiz-adv-x="1602" d="M151 0v1536h338v-617h625v617h335v-1536h-335v620h-625v-620h-338z" />
<glyph unicode="I" horiz-adv-x="663" d="M164 0v1536h338v-1536h-338z" />
<glyph unicode="J" horiz-adv-x="1164" d="M67 315l332 97q10 -60 51 -98t98 -38q63 0 107 46.5t44 115.5v798h-504v300h842v-1142q0 -192 -128 -303t-361 -111q-208 0 -332 88.5t-149 246.5z" />
<glyph unicode="K" horiz-adv-x="1507" d="M151 0v1536h338v-543h59l502 543h435l-663 -684l740 -852h-451l-573 701h-49v-701h-338z" />
<glyph unicode="L" horiz-adv-x="1003" d="M151 0v1536h338v-1236h509v-300h-847z" />
<glyph unicode="M" horiz-adv-x="2004" d="M151 0v1536h366l484 -1062l489 1062h363v-1536h-337v914l-418 -914h-194l-415 916v-916h-338z" />
<glyph unicode="N" horiz-adv-x="1743" d="M151 0v1536h348l755 -1016v1016h336v-1536h-348l-753 1019v-1019h-338z" />
<glyph unicode="O" d="M95 768q0 160 62.5 306t168 251.5t251.5 168t306 62.5q161 0 307.5 -62.5t252 -168t167.5 -251.5t62 -306t-62 -306t-167.5 -251.5t-252 -168t-307.5 -62.5q-160 0 -306 62.5t-251.5 168t-168 251.5t-62.5 306zM428 768q0 -195 130.5 -326.5t324.5 -131.5 q195 0 326.5 131.5t131.5 326.5t-131.5 326.5t-326.5 131.5q-194 0 -324.5 -131.5t-130.5 -326.5z" />
<glyph unicode="P" horiz-adv-x="1272" d="M151 0v1536h653q193 0 325.5 -135t132.5 -328q0 -194 -131.5 -322.5t-326.5 -128.5h-315v-622h-338zM489 901h261q82 0 136 47t54 122q0 74 -54 121.5t-136 47.5h-261v-338z" />
<glyph unicode="Q" horiz-adv-x="1771" d="M95 768q0 160 62.5 306t168 251.5t251.5 168t306 62.5q161 0 307.5 -62.5t252 -168t167.5 -251.5t62 -306q0 -181 -77 -340t-210 -269l192 84h154v-243h-669q-86 -20 -179 -20q-160 0 -306 62.5t-251.5 168t-168 251.5t-62.5 306zM428 768q0 -195 130.5 -326.5 t324.5 -131.5q195 0 326.5 131.5t131.5 326.5t-131.5 326.5t-326.5 131.5q-194 0 -324.5 -131.5t-130.5 -326.5z" />
<glyph unicode="R" horiz-adv-x="1369" d="M151 0v1536h653q196 0 327 -136.5t131 -334.5q0 -156 -86 -274t-224 -159l430 -632h-378l-379 594h-136v-594h-338zM489 873h264q82 0 134.5 51t52.5 131q0 79 -53 130t-134 51h-264v-363z" />
<glyph unicode="S" horiz-adv-x="1213" d="M41 323l279 174q43 -92 123.5 -146t183.5 -54q88 0 139 38.5t51 102.5q0 43 -24.5 76.5t-65.5 56.5t-94 43t-112 40.5t-117.5 44.5t-111.5 59.5t-94 80.5t-65.5 112.5t-24.5 151.5q0 111 42 199.5t112.5 142.5t157 82.5t179.5 28.5q139 0 263 -58.5t211 -158.5l-226 -215 q-122 133 -251 133q-65 0 -106.5 -33t-41.5 -95q0 -42 24 -74.5t65 -55t94 -42t112 -40.5t117.5 -46t111.5 -63t94 -86.5t65 -122t24 -164.5q0 -139 -73 -244t-192.5 -158t-264.5 -53q-194 0 -350 96t-234 247z" />
<glyph unicode="T" horiz-adv-x="1085" d="M-13 1236v300h1111v-300h-386v-1236h-336v1236h-389z" />
<glyph unicode="U" horiz-adv-x="1564" d="M143 492v1044h338v-980q0 -117 86.5 -197t213.5 -80q129 0 215.5 80t86.5 197v980h338v-1044q0 -143 -83.5 -260t-230.5 -184.5t-326 -67.5q-176 0 -322.5 67t-231 185t-84.5 260z" />
<glyph unicode="V" horiz-adv-x="1418" d="M-33 1536h376l366 -1098l366 1098h377l-553 -1536h-379z" />
<glyph unicode="W" horiz-adv-x="2104" d="M-36 1536h356l276 -1070l292 1070h328l294 -1065l274 1065h356l-420 -1536h-389l-279 1080l-279 -1080h-389z" />
<glyph unicode="X" horiz-adv-x="1361" d="M-33 0l532 791l-502 745h387l297 -466l297 466h386l-501 -742l530 -794h-387l-325 515l-325 -515h-389z" />
<glyph unicode="Y" horiz-adv-x="1349" d="M-33 1536h381l328 -520l328 520h376l-535 -812v-724h-338v722z" />
<glyph unicode="Z" horiz-adv-x="1310" d="M59 0l653 1236h-589v300h1113l-647 -1236h647v-300h-1177z" />
<glyph unicode="[" horiz-adv-x="842" d="M151 -512v2319h548v-179h-264v-1961h264v-179h-548z" />
<glyph unicode="\" horiz-adv-x="1436" d="M-41 1754h305l1213 -2368h-305z" />
<glyph unicode="]" horiz-adv-x="842" d="M143 -333h264v1961h-264v179h546v-2319h-546v179z" />
<glyph unicode="^" horiz-adv-x="1548" d="M59 404l571 1132h289l568 -1132h-268l-446 884l-443 -884h-271z" />
<glyph unicode="_" horiz-adv-x="1390" d="M79 0h1229v-223h-1229v223z" />
<glyph unicode="`" horiz-adv-x="197" d="M33 1536h310l225 -381h-215z" />
<glyph unicode="a" horiz-adv-x="1251" d="M118 274q0 137 87 218t235 81h351v77q0 67 -48.5 106.5t-125.5 39.5t-124.5 -35t-47.5 -95h-327q0 172 136.5 275t362.5 103t364 -116t138 -311v-218q0 -62 17.5 -97.5t46.5 -35.5h53v-266q-51 -20 -102 -20q-187 0 -279 143q-60 -68 -154 -105.5t-207 -37.5 q-171 0 -273.5 80t-102.5 214zM448 287q0 -40 37.5 -63.5t100.5 -23.5q86 0 140.5 47.5t64.5 128.5h-238q-48 0 -76.5 -24t-28.5 -65z" />
<glyph unicode="b" horiz-adv-x="1354" d="M151 0v1754h328v-820q123 110 292 110q211 0 357.5 -154.5t146.5 -377.5t-146.5 -377.5t-357.5 -154.5q-169 0 -292 110v-93zM463 512q0 -102 71 -172.5t173 -70.5t172.5 70.5t70.5 172.5t-70.5 172.5t-172.5 70.5t-173 -70.5t-71 -172.5z" />
<glyph unicode="c" horiz-adv-x="1269" d="M79 512q0 232 158 382t413 150q227 0 377 -120t184 -315h-338q-25 65 -84.5 104.5t-138.5 41.5q-106 -2 -174.5 -70.5t-68.5 -172.5t68.5 -172.5t174.5 -70.5q79 2 138.5 41.5t84.5 104.5h338q-34 -195 -184 -315t-377 -120q-255 0 -413 150t-158 382z" />
<glyph unicode="d" horiz-adv-x="1354" d="M79 512q0 146 67 268.5t183.5 193t256.5 70.5q169 0 292 -110v820h325v-1754l-325 -3v93q-123 -110 -292 -110q-140 0 -256.5 70.5t-183.5 193t-67 268.5zM407 512q0 -102 70.5 -172.5t172.5 -70.5q100 0 171.5 71t71.5 172t-71.5 172t-171.5 71q-102 0 -172.5 -70.5 t-70.5 -172.5z" />
<glyph unicode="e" horiz-adv-x="1303" d="M79 512q0 238 161.5 386.5t414.5 148.5q252 0 408 -146t158 -386l-2 -57h-794q21 -235 235 -235q86 0 145.5 34t80.5 96h317q-39 -171 -181 -272t-359 -101q-260 0 -422 146.5t-162 385.5zM443 655h433q-52 141 -216 141t-217 -141z" />
<glyph unicode="f" horiz-adv-x="770" d="M28 771v253h172v346q0 162 118.5 273t283.5 111q118 0 163 -31v-256h-122q-52 0 -84 -37t-32 -99v-307h244v-253h-244v-771h-327v771h-172z" />
<glyph unicode="g" horiz-adv-x="1382" d="M87 -287l300 121q29 -78 93.5 -122.5t151.5 -44.5q125 0 198.5 82t73.5 223v118q-123 -110 -295 -110q-140 0 -255.5 70.5t-182 193t-66.5 268.5q0 148 66.5 270t182 192t255.5 70q175 0 290 -107v87h327l3 -1034q0 -284 -158.5 -445.5t-438.5 -161.5q-201 0 -341.5 86 t-203.5 244zM430 512q0 -102 70.5 -172.5t172.5 -70.5t172.5 70.5t70.5 172.5t-70.5 172.5t-172.5 70.5t-172.5 -70.5t-70.5 -172.5z" />
<glyph unicode="h" horiz-adv-x="1264" d="M151 0v1754h328v-845q116 135 286 135q156 0 264 -114t108 -282v-648h-328v594q0 68 -44 114.5t-112 46.5q-73 0 -123.5 -53.5t-50.5 -122.5v-579h-328z" />
<glyph unicode="i" horiz-adv-x="640" d="M141 1375q0 74 53 126.5t126 52.5t126 -52.5t53 -126.5q0 -73 -53 -126t-126 -53t-126 53t-53 126zM156 0v1024h325v-1024h-325z" />
<glyph unicode="j" horiz-adv-x="640" d="M-84 -328h125q51 0 83 38.5t32 100.5v1213h325v-1252q0 -162 -118 -274t-281 -112q-51 0 -97.5 9.5t-68.5 23.5v253zM141 1375q0 74 53 126.5t126 52.5t126 -52.5t53 -126.5q0 -73 -53 -126t-126 -53t-126 53t-53 126z" />
<glyph unicode="k" horiz-adv-x="1231" d="M166 0v1754h326v-1099l355 369h392l-448 -463l486 -561h-425l-360 471v-471h-326z" />
<glyph unicode="l" horiz-adv-x="629" d="M151 0v1754h328v-1754h-328z" />
<glyph unicode="m" horiz-adv-x="1853" d="M151 0v1024h328v-125q108 145 279 145q96 0 171 -48t121 -131q49 86 131.5 132.5t190.5 46.5q166 0 258.5 -107.5t92.5 -288.5v-648h-325v594q0 69 -42 115t-109 46q-70 0 -108 -49.5t-38 -111.5v-594h-328v594q0 69 -41 115t-107 46q-70 0 -108 -49.5t-38 -111.5v-594 h-328z" />
<glyph unicode="n" horiz-adv-x="1267" d="M151 0v1024h328v-128q56 70 135.5 109t171.5 39q153 0 252 -106t99 -275v-663h-325v594q0 69 -45.5 115t-116.5 46q-72 0 -121.5 -46t-49.5 -115v-594h-328z" />
<glyph unicode="o" horiz-adv-x="1300" d="M79 512q0 232 158 382t413 150t412 -149.5t157 -382.5t-157 -382.5t-412 -149.5t-413 150t-158 382zM407 512q0 -104 68.5 -172.5t174.5 -70.5q104 2 173.5 71t69.5 172t-69.5 172t-173.5 71q-106 -2 -174.5 -70.5t-68.5 -172.5z" />
<glyph unicode="p" horiz-adv-x="1354" d="M151 -614v1638l328 -3v-87q123 110 292 110q211 0 357.5 -154.5t146.5 -377.5t-146.5 -377.5t-357.5 -154.5q-169 0 -292 110v-707zM463 512q0 -102 71 -172.5t173 -70.5t172.5 70.5t70.5 172.5t-70.5 172.5t-172.5 70.5t-173 -70.5t-71 -172.5z" />
<glyph unicode="q" horiz-adv-x="1354" d="M79 512q0 146 67 268.5t183.5 193t256.5 70.5q169 0 292 -110v90h325v-1213q0 -63 33 -101t85 -38h95v-266q-66 -20 -136 -20q-165 0 -283.5 112t-118.5 274v318q-123 -110 -292 -110q-140 0 -256.5 70.5t-183.5 193t-67 268.5zM407 512q0 -102 70.5 -172.5t172.5 -70.5 q100 0 171.5 71t71.5 172t-71.5 172t-171.5 71q-102 0 -172.5 -70.5t-70.5 -172.5z" />
<glyph unicode="r" horiz-adv-x="844" d="M151 0v1024h328v-141q108 161 286 161q56 0 85 -10v-281q-15 2 -95 2q-123 0 -199.5 -71t-76.5 -195v-489h-328z" />
<glyph unicode="s" horiz-adv-x="919" d="M49 225l240 121q57 -108 172 -108q41 0 65 17t24 47q0 27 -27 48.5t-95 48.5q-128 48 -184 84q-139 89 -139 234q0 135 105.5 231t275.5 96q103 0 194.5 -37.5t151.5 -97.5l-164 -185q-25 31 -68.5 53t-90.5 22q-40 0 -60.5 -16.5t-20.5 -42.5q0 -14 6 -24.5t22.5 -21 t32.5 -18t49 -21.5q52 -20 89.5 -37.5t83 -48t74 -64.5t48 -84t19.5 -109q0 -147 -100.5 -239.5t-270.5 -92.5q-143 0 -265.5 65t-166.5 180z" />
<glyph unicode="t" horiz-adv-x="819" d="M28 771v253h172v394h325v-394h243v-253h-243v-367q0 -62 33 -100t85 -38h122v-253q-20 -14 -66 -23.5t-97 -9.5q-165 0 -283.5 112t-118.5 274v405h-172z" />
<glyph unicode="u" horiz-adv-x="1221" d="M128 392v632h328v-589q0 -72 43.5 -119t109.5 -47q68 0 112 46.5t44 119.5v589h326v-632q0 -191 -126 -301.5t-356 -110.5q-229 0 -355 110.5t-126 301.5z" />
<glyph unicode="v" horiz-adv-x="1105" d="M-13 1024h348l218 -673l215 673h351l-415 -1024h-307z" />
<glyph unicode="w" horiz-adv-x="1751" d="M-13 1024h371l172 -678l218 678h256l220 -681l174 681h363l-348 -1024h-345l-192 579l-192 -579h-344z" />
<glyph unicode="x" horiz-adv-x="1231" d="M-13 0l433 512l-433 512h389l238 -282l238 282h392l-432 -515l432 -509h-392l-235 279l-236 -279h-394z" />
<glyph unicode="y" horiz-adv-x="1162" d="M-13 1024h341l256 -678l251 678h337l-655 -1638h-343l241 591z" />
<glyph unicode="z" horiz-adv-x="1000" d="M54 0l427 753h-373v271h857l-430 -753h415v-271h-896z" />
<glyph unicode="{" horiz-adv-x="762" d="M100 453v190q52 23 77.5 39t45 49.5t25 81t5.5 132.5v494q0 138 77 234t190 96h148v-187q-97 0 -117 -5q-37 -10 -47 -53q-5 -24 -5 -65v-545q0 -129 -24.5 -217t-82.5 -149q58 -61 82.5 -149t24.5 -217v-561q0 -45 12 -65t46.5 -28.5t110.5 -8.5v-190h-148 q-113 0 -190 95t-77 233v494q0 86 -5 133t-24.5 80.5t-45 50t-78.5 38.5z" />
<glyph unicode="|" horiz-adv-x="665" d="M230 -307v1843h203v-1843h-203z" />
<glyph unicode="}" horiz-adv-x="762" d="M95 -481q109 0 137.5 18.5t28.5 83.5v561q0 249 110 366q-110 117 -110 366v545q0 24 -1.5 41t-5 30.5t-9 22t-13.5 14.5t-18.5 9t-24.5 4.5t-31 1.5h-37h-26v187h148q113 0 188.5 -95.5t75.5 -234.5v-494q0 -85 5.5 -132.5t25 -81t45 -49.5t77.5 -39v-190 q-52 -23 -77.5 -39t-45 -49.5t-25 -81t-5.5 -132.5v-494q0 -139 -75.5 -233.5t-188.5 -94.5h-148v190z" />
<glyph unicode="~" horiz-adv-x="1208" d="M74 323q-10 184 85.5 298t268.5 114q90 0 149.5 -34.5t116.5 -111.5q47 -64 97 -64q54 0 90 51t30 136h221q17 -171 -75 -288t-245 -117q-40 0 -78 9.5t-63.5 21t-55.5 33.5t-43 33.5t-37 35.5l-26 26q-45 43 -87 43q-62 0 -92 -53.5t-33 -132.5h-223z" />
<glyph unicode="&#xa1;" horiz-adv-x="724" d="M182 845q0 73 53 126t126 53q76 0 129 -53t53 -126q0 -75 -53 -128.5t-129 -53.5q-73 0 -126 53.5t-53 128.5zM200 -614l38 1106h246l41 -1106h-325z" />
<glyph unicode="&#xa2;" horiz-adv-x="1024" d="M95 717q0 180 114 320.5t295 191.5v207h190v-187q95 -4 189 -36v-309q-74 61 -215 61q-103 0 -174.5 -72t-71.5 -176t71.5 -176.5t174.5 -72.5q142 0 215 64v-312q-94 -32 -189 -36v-187h-190v208q-181 51 -295 191.5t-114 320.5z" />
<glyph unicode="&#xa3;" horiz-adv-x="1346" d="M72 640v207h164v187q0 229 143 375.5t366 146.5q174 0 319 -115t178 -286l-238 -103q4 107 -75 183t-184 76q-122 0 -194 -74.5t-72 -202.5v-187h381v-207h-381v-415h778v-225h-1021v640h-164z" />
<glyph unicode="&#xa4;" horiz-adv-x="1379" d="M148 376l108 110q-71 117 -71 257.5t71 257.5l-108 107l172 180l113 -113q118 72 257 72t257 -72l110 110l174 -174l-107 -107q71 -119 71 -260t-71 -260l107 -108l-171 -179l-113 113q-117 -71 -258.5 -71t-258.5 71l-113 -113zM428 741.5q-1 -108.5 74 -183.5 q79 -76 188.5 -76t185.5 76q75 76 74 185t-77 184q-75 77 -184 77t-185 -77q-75 -77 -76 -185.5z" />
<glyph unicode="&#xa5;" horiz-adv-x="1482" d="M79 1536h302l361 -566l359 566h299l-494 -748h328v-202h-351v-146h351v-189h-351v-251h-284v251h-348v189h348v146h-351v202h325z" />
<glyph unicode="&#xa6;" horiz-adv-x="665" d="M230 -307v737h203v-737h-203zM230 799v737h203v-737h-203z" />
<glyph unicode="&#xa7;" horiz-adv-x="1351" d="M133 256l197 123q42 -68 139.5 -111t229.5 -43q124 0 206.5 36t82.5 97q0 36 -34 63t-89.5 42.5t-126.5 32t-145.5 31.5t-145.5 41.5t-126.5 60.5t-89.5 91t-34 130q0 109 77 189q-77 69 -77 180q0 80 40.5 145t108.5 106.5t152 63.5t175 22q132 0 256.5 -44t199.5 -117 l-159 -133q-104 87 -281 87q-106 0 -180 -32t-74 -86q0 -33 27 -57t73 -40t105 -29.5t125 -27.5t131.5 -30.5t124.5 -43t105 -61.5t73 -88.5t27 -121.5q0 -102 -77 -187q77 -77 77 -189q0 -98 -74.5 -179t-198.5 -126.5t-267 -45.5q-180 0 -332.5 70t-220.5 181zM435 858 q0 -35 29.5 -60.5t86 -43t115 -30.5t140.5 -31.5t139 -37.5q43 35 43 80q0 34 -29.5 59t-85.5 42t-115 29.5t-140.5 30.5t-138.5 36q-44 -31 -44 -74z" />
<glyph unicode="&#xa8;" horiz-adv-x="256" d="M125 1357q0 64 46 108.5t108 44.5q64 0 110 -44.5t46 -108.5q0 -62 -46.5 -108t-109.5 -46q-61 0 -107.5 46.5t-46.5 107.5zM556 1357q0 64 45.5 108.5t107.5 44.5q65 0 109.5 -44t44.5 -109q0 -62 -45 -108t-109 -46q-61 0 -107 46t-46 108z" />
<glyph unicode="&#xa9;" d="M95 768q0 160 62.5 306t168.5 251.5t251.5 168t305.5 62.5t306 -62.5t252 -168t168.5 -251.5t62.5 -306t-62.5 -306t-168.5 -251.5t-252 -168t-306 -62.5t-305.5 62.5t-251.5 168t-168.5 251.5t-62.5 306zM266 768q0 -170 81.5 -312t223.5 -223.5t312 -81.5 q128 0 242.5 48t196.5 130.5t130 196.5t48 242t-48 242t-130 196.5t-196.5 130.5t-242.5 48q-170 0 -312 -81.5t-223.5 -223.5t-81.5 -312zM507 765q0 161 105 264t274 103q151 0 250.5 -82.5t123.5 -217.5h-226q-17 46 -57 73t-91 27q-71 0 -116.5 -47.5t-45.5 -119.5 q0 -71 45.5 -119t116.5 -50q52 2 91.5 29.5t56.5 73.5h226q-24 -136 -123.5 -219t-250.5 -83q-169 0 -274 103.5t-105 264.5z" />
<glyph unicode="&#xaa;" horiz-adv-x="832" d="M54 1229q0 133 88.5 226.5t215.5 93.5q139 0 218 -108v95h156v-614h-156v94q-78 -107 -218 -107q-127 0 -215.5 93t-88.5 227zM207 1229q0 -77 54.5 -131t130.5 -54t130 54t54 131t-54 130.5t-130 53.5q-77 0 -131 -54t-54 -130z" />
<glyph unicode="&#xab;" horiz-adv-x="1510" d="M225 571l313 376h256l-313 -376l313 -376h-256zM714 571l313 376h258l-310 -376l310 -376h-258z" />
<glyph unicode="&#xac;" horiz-adv-x="1681" d="M182 719v208h1318v-732h-205v524h-1113z" />
<glyph unicode="&#xad;" horiz-adv-x="1159" d="M161 420v225h717v-225h-717z" />
<glyph unicode="&#xae;" d="M95 768q0 160 62.5 306t168.5 251.5t251.5 168t305.5 62.5t306 -62.5t252 -168t168.5 -251.5t62.5 -306t-62.5 -306t-168.5 -251.5t-252 -168t-306 -62.5t-305.5 62.5t-251.5 168t-168.5 251.5t-62.5 306zM266 768q0 -170 81.5 -312t223.5 -223.5t312 -81.5 q128 0 242.5 48t196.5 130.5t130 196.5t48 242t-48 242t-130 196.5t-196.5 130.5t-242.5 48q-170 0 -312 -81.5t-223.5 -223.5t-81.5 -312zM666 374v788h268q102 0 174 -70t72 -170q0 -68 -35.5 -125t-94.5 -88l184 -335h-177l-171 307h-64v-307h-156zM822 837h112 q35 0 61 24.5t26 60.5q0 35 -25 59.5t-62 24.5h-112v-169z" />
<glyph unicode="&#xaf;" horiz-adv-x="120" d="M69 1188v205h617v-205h-617z" />
<glyph unicode="&#xb0;" horiz-adv-x="995" d="M223 1283q0 115 80 194t194 79q116 0 196 -79t80 -194t-80 -194.5t-196 -79.5q-114 0 -194 79.5t-80 194.5zM376 1283q0 -51 35 -86t86 -35q52 0 87.5 34.5t35.5 86.5q0 51 -35.5 85.5t-87.5 34.5q-51 0 -86 -34.5t-35 -85.5z" />
<glyph unicode="&#xb1;" horiz-adv-x="1635" d="M100 0v189h1436v-189h-1436zM100 735v212h614v369h210v-369h612v-212h-612v-369h-210v369h-614z" />
<glyph unicode="&#xb2;" horiz-adv-x="755" d="M84 806l292 372q55 72 70 99.5t15 53.5q0 46 -24 66.5t-58 20.5q-38 0 -61.5 -25.5t-17.5 -68.5h-154q-7 101 65.5 168t175.5 67q97 0 162 -60t65 -152q0 -62 -25 -109.5t-103 -146.5l-115 -146h256v-139h-543z" />
<glyph unicode="&#xb3;" horiz-adv-x="757" d="M128 998l156 3q0 -28 26 -48.5t61 -20.5q44 0 69.5 27t25.5 70q0 42 -25.5 68.5t-66.5 26.5h-220l207 271h-233v138h499l-238 -297q103 0 168 -55.5t65 -156.5t-72.5 -171t-178.5 -70q-100 0 -171.5 62.5t-71.5 152.5z" />
<glyph unicode="&#xb4;" horiz-adv-x="197" d="M77 1155l225 381h310l-320 -381h-215z" />
<glyph unicode="&#xb5;" horiz-adv-x="1280" d="M161 -512v1536h282v-596q0 -85 58.5 -144t143.5 -59q92 0 156 59t64 144v596h282v-1024h-282v118q-127 -138 -302 -138q-107 0 -194 51v-543h-208z" />
<glyph unicode="&#xb6;" horiz-adv-x="1359" d="M202 1193q0 166 97 254.5t269 88.5h192v-1843h-161v1157h-31q-171 0 -268.5 89t-97.5 254zM952 -307v1843h164v-1843h-164z" />
<glyph unicode="&#xb7;" horiz-adv-x="627" d="M182 737q0 52 39 91.5t91 39.5t92.5 -39.5t40.5 -91.5q0 -54 -40 -92t-93 -38t-91.5 37.5t-38.5 92.5z" />
<glyph unicode="&#xb8;" horiz-adv-x="117" d="M59 -374l143 46q13 -23 42 -39.5t56 -16.5q33 0 56 23t23 56q0 54 -47 68.5t-112 -19.5l-115 67l105 189h151l-69 -118q98 17 166.5 -38t68.5 -149q0 -96 -65.5 -161.5t-161.5 -65.5q-78 0 -148 46t-93 112z" />
<glyph unicode="&#xb9;" horiz-adv-x="555" d="M64 1400v136h261v-768h-153v632h-108z" />
<glyph unicode="&#xba;" horiz-adv-x="783" d="M54 1229q0 133 98.5 226.5t239.5 93.5q142 0 241 -93.5t99 -226.5q0 -134 -99 -227t-241 -93t-240 93t-98 227zM207 1229q0 -77 54.5 -131t130.5 -54t130 54t54 131t-54 130.5t-130 53.5q-77 0 -131 -54t-54 -130z" />
<glyph unicode="&#xbb;" horiz-adv-x="1510" d="M223 195l312 376l-312 376h256l312 -376l-312 -376h-256zM714 195l310 376l-310 376h259l310 -376l-310 -376h-259z" />
<glyph unicode="&#xbc;" horiz-adv-x="2147" d="M64 1344v192h374v-1024h-220v832h-154zM315 -5l1070 1536h251l-1070 -1536h-251zM1257 215l427 809h277v-614h84v-195h-84v-215h-218v215h-486zM1533 410h210v417z" />
<glyph unicode="&#xbd;" horiz-adv-x="2099" d="M64 1344v192h374v-1024h-220v832h-154zM279 -3l1070 1536h251l-1070 -1536h-251zM1267 -3l400 515q78 98 99 137t21 75q0 63 -33.5 90.5t-79.5 27.5q-54 0 -85.5 -35t-24.5 -95h-212q-13 140 87 232.5t245 92.5q134 0 224.5 -83t90.5 -209q0 -87 -35 -155.5t-141 -200.5 l-162 -200h356v-192h-750z" />
<glyph unicode="&#xbe;" horiz-adv-x="2193" d="M105 801l218 3q0 -40 35.5 -67.5t84.5 -27.5q61 0 97 37t36 96t-36 95t-92 36h-307l287 376h-323v192h694l-328 -409q141 0 230.5 -77.5t89.5 -217.5q0 -139 -100.5 -236t-247.5 -97q-139 0 -238.5 86.5t-99.5 210.5zM428 -5l1070 1536h250l-1070 -1536h-250zM1300 215 l428 809h276v-614h85v-195h-85v-215h-217v215h-487zM1577 410h210v417z" />
<glyph unicode="&#xbf;" horiz-adv-x="1349" d="M120 -54q0 87 20 152.5t52.5 103t71.5 64.5t78 45t71.5 36t52.5 45.5t20 65.5v121h292v-103q0 -70 -12.5 -122.5t-34 -84.5t-49.5 -54.5t-59 -36.5t-61.5 -26.5t-58.5 -27.5t-49.5 -36t-34 -57t-12.5 -85q0 -82 65.5 -139.5t159.5 -57.5q113 0 178.5 77.5t44.5 188.5h289 q15 -151 -47.5 -277t-185.5 -198t-279 -72q-141 0 -259 63t-185.5 173t-67.5 242zM445 886q0 75 52.5 127t127.5 52t127 -52t52 -127q0 -76 -52 -127.5t-127 -51.5t-127.5 51.5t-52.5 127.5z" />
<glyph unicode="&#xc0;" horiz-adv-x="1418" d="M-33 0l553 1536h379l553 -1536h-361l-95 289h-574l-94 -289h-361zM302 2048h310l225 -381h-215zM512 571h394l-197 609z" />
<glyph unicode="&#xc1;" horiz-adv-x="1418" d="M-33 0l553 1536h379l553 -1536h-361l-95 289h-574l-94 -289h-361zM512 571h394l-197 609zM586 1667l226 381h309l-320 -381h-215z" />
<glyph unicode="&#xc2;" horiz-adv-x="1418" d="M-33 0l553 1536h379l553 -1536h-361l-95 289h-574l-94 -289h-361zM361 1667l251 381h197l253 -381h-204l-146 199l-146 -199h-205zM512 571h394l-197 609z" />
<glyph unicode="&#xc3;" horiz-adv-x="1418" d="M-33 0l553 1536h379l553 -1536h-361l-95 289h-574l-94 -289h-361zM333 1674q0 146 66 237t180 91q126 0 212 -120q17 -34 44 -34q33 0 45.5 35.5t12.5 103.5h195q0 -144 -64 -235t-184 -91q-125 0 -208 121q-20 30 -46 30q-59 0 -59 -138h-194zM512 571h394l-197 609z " />
<glyph unicode="&#xc4;" horiz-adv-x="1418" d="M-33 0l553 1536h379l553 -1536h-361l-95 289h-574l-94 -289h-361zM343 1869q0 64 46 108.5t108 44.5q64 0 110 -44.5t46 -108.5q0 -62 -46.5 -108t-109.5 -46q-61 0 -107.5 46.5t-46.5 107.5zM512 571h394l-197 609zM773 1869q0 64 46 108.5t108 44.5q65 0 109 -44 t44 -109q0 -62 -44.5 -108t-108.5 -46q-61 0 -107.5 46.5t-46.5 107.5z" />
<glyph unicode="&#xc5;" horiz-adv-x="1418" d="M-33 0l548 1523q-39 64 -39 133q0 102 73.5 174t177.5 72q102 0 174 -72t72 -174q0 -89 -59 -164l538 -1492h-361l-95 289h-574l-94 -289h-361zM512 571h394l-197 609zM614 1656q0 -54 31 -85.5t82 -31.5q49 0 82 32t33 85q0 47 -34 82.5t-81 35.5q-49 0 -81 -35.5 t-32 -82.5z" />
<glyph unicode="&#xc6;" horiz-adv-x="1950" d="M-33 0l614 1536h1265v-289h-594v-348h507v-262h-507v-348h594v-289h-922v320h-461l-120 -320h-376zM561 581h363v671h-110z" />
<glyph unicode="&#xc7;" horiz-adv-x="1648" d="M95 768q0 160 62.5 306t168 251.5t251.5 168t306 62.5q225 0 412 -115t287 -307l-292 -151q-56 111 -164.5 177t-242.5 66q-194 0 -324.5 -131.5t-130.5 -326.5t130.5 -326.5t324.5 -131.5q134 0 242.5 66t164.5 177l292 -151q-91 -177 -259 -290t-373 -130l-59 -100 q98 17 166.5 -38t68.5 -149q0 -96 -65.5 -161.5t-161.5 -65.5q-78 0 -148 46t-93 112l143 46q13 -23 42 -39.5t56 -16.5q33 0 56 23t23 56q0 54 -47 68.5t-112 -19.5l-115 67l97 174q-147 15 -277.5 82.5t-224.5 171t-149 241.5t-55 288z" />
<glyph unicode="&#xc8;" horiz-adv-x="1192" d="M164 0v1536h924v-297h-586v-323h502v-296h-502v-323h586v-297h-924zM218 2048h309l226 -381h-215z" />
<glyph unicode="&#xc9;" horiz-adv-x="1192" d="M164 0v1536h924v-297h-586v-323h502v-296h-502v-323h586v-297h-924zM502 1667l225 381h310l-320 -381h-215z" />
<glyph unicode="&#xca;" horiz-adv-x="1192" d="M164 0v1536h924v-297h-586v-323h502v-296h-502v-323h586v-297h-924zM276 1667l251 381h197l254 -381h-205l-146 199l-146 -199h-205z" />
<glyph unicode="&#xcb;" horiz-adv-x="1192" d="M164 0v1536h924v-297h-586v-323h502v-296h-502v-323h586v-297h-924zM259 1869q0 64 45.5 108.5t107.5 44.5q64 0 110 -44.5t46 -108.5q0 -62 -46.5 -108t-109.5 -46q-61 0 -107 46t-46 108zM689 1869q0 64 45.5 108.5t107.5 44.5q65 0 109.5 -44t44.5 -109 q0 -62 -45 -108t-109 -46q-61 0 -107 46t-46 108z" />
<glyph unicode="&#xcc;" horiz-adv-x="663" d="M-79 2048h309l226 -381h-215zM164 0v1536h338v-1536h-338z" />
<glyph unicode="&#xcd;" horiz-adv-x="663" d="M164 0v1536h338v-1536h-338zM205 1667l225 381h310l-320 -381h-215z" />
<glyph unicode="&#xce;" horiz-adv-x="663" d="M-20 1667l250 381h198l253 -381h-205l-146 199l-146 -199h-204zM164 0v1536h338v-1536h-338z" />
<glyph unicode="&#xcf;" horiz-adv-x="663" d="M-38 1869q0 64 45.5 108.5t107.5 44.5q64 0 110 -44.5t46 -108.5q0 -62 -46.5 -108t-109.5 -46q-61 0 -107 46t-46 108zM164 0v1536h338v-1536h-338zM392 1869q0 64 45.5 108.5t107.5 44.5q65 0 109.5 -44t44.5 -109q0 -62 -45 -108t-109 -46q-61 0 -107 46t-46 108z" />
<glyph unicode="&#xd0;" horiz-adv-x="1520" d="M8 681v174h143v681h507q156 0 298 -60.5t245 -163.5t164 -245.5t61 -298.5t-61 -298.5t-164 -245.5t-245 -163.5t-298 -60.5h-507v681h-143zM489 300h166q183 0 308 134.5t125 333.5t-125 333.5t-308 134.5h-166v-381h235v-174h-235v-381z" />
<glyph unicode="&#xd1;" horiz-adv-x="1743" d="M151 0v1536h348l755 -1016v1016h336v-1536h-348l-753 1019v-1019h-338zM499 1674q0 146 66 237t180 91q126 0 212 -120q17 -34 44 -34q59 0 59 139h194q0 -144 -64 -235t-184 -91q-124 0 -207 121q-20 30 -46 30q-59 0 -59 -138h-195z" />
<glyph unicode="&#xd2;" d="M95 768q0 160 62.5 306t168 251.5t251.5 168t306 62.5q161 0 307.5 -62.5t252 -168t167.5 -251.5t62 -306t-62 -306t-167.5 -251.5t-252 -168t-307.5 -62.5q-160 0 -306 62.5t-251.5 168t-168 251.5t-62.5 306zM428 768q0 -195 130.5 -326.5t324.5 -131.5 q195 0 326.5 131.5t131.5 326.5t-131.5 326.5t-326.5 131.5q-194 0 -324.5 -131.5t-130.5 -326.5zM474 2048h309l226 -381h-215z" />
<glyph unicode="&#xd3;" d="M95 768q0 160 62.5 306t168 251.5t251.5 168t306 62.5q161 0 307.5 -62.5t252 -168t167.5 -251.5t62 -306t-62 -306t-167.5 -251.5t-252 -168t-307.5 -62.5q-160 0 -306 62.5t-251.5 168t-168 251.5t-62.5 306zM428 768q0 -195 130.5 -326.5t324.5 -131.5 q195 0 326.5 131.5t131.5 326.5t-131.5 326.5t-326.5 131.5q-194 0 -324.5 -131.5t-130.5 -326.5zM758 1667l225 381h310l-320 -381h-215z" />
<glyph unicode="&#xd4;" d="M95 768q0 160 62.5 306t168 251.5t251.5 168t306 62.5q161 0 307.5 -62.5t252 -168t167.5 -251.5t62 -306t-62 -306t-167.5 -251.5t-252 -168t-307.5 -62.5q-160 0 -306 62.5t-251.5 168t-168 251.5t-62.5 306zM428 768q0 -195 130.5 -326.5t324.5 -131.5 q195 0 326.5 131.5t131.5 326.5t-131.5 326.5t-326.5 131.5q-194 0 -324.5 -131.5t-130.5 -326.5zM532 1667l251 381h197l254 -381h-205l-146 199l-146 -199h-205z" />
<glyph unicode="&#xd5;" d="M95 768q0 160 62.5 306t168 251.5t251.5 168t306 62.5q161 0 307.5 -62.5t252 -168t167.5 -251.5t62 -306t-62 -306t-167.5 -251.5t-252 -168t-307.5 -62.5q-160 0 -306 62.5t-251.5 168t-168 251.5t-62.5 306zM428 768q0 -195 130.5 -326.5t324.5 -131.5 q195 0 326.5 131.5t131.5 326.5t-131.5 326.5t-326.5 131.5q-194 0 -324.5 -131.5t-130.5 -326.5zM504 1674q0 146 66 237t180 91q127 0 213 -120q17 -34 43 -34q59 0 59 139h195q0 -144 -64.5 -235t-184.5 -91q-124 0 -207 121q-20 30 -46 30q-59 0 -59 -138h-195z" />
<glyph unicode="&#xd6;" d="M95 768q0 160 62.5 306t168 251.5t251.5 168t306 62.5q161 0 307.5 -62.5t252 -168t167.5 -251.5t62 -306t-62 -306t-167.5 -251.5t-252 -168t-307.5 -62.5q-160 0 -306 62.5t-251.5 168t-168 251.5t-62.5 306zM428 768q0 -195 130.5 -326.5t324.5 -131.5 q195 0 326.5 131.5t131.5 326.5t-131.5 326.5t-326.5 131.5q-194 0 -324.5 -131.5t-130.5 -326.5zM515 1869q0 64 45.5 108.5t107.5 44.5q64 0 110 -44.5t46 -108.5q0 -62 -46.5 -108t-109.5 -46q-61 0 -107 46t-46 108zM945 1869q0 64 45.5 108.5t107.5 44.5 q65 0 109.5 -44t44.5 -109q0 -62 -45 -108t-109 -46q-61 0 -107 46t-46 108z" />
<glyph unicode="&#xd7;" horiz-adv-x="1569" d="M269 274l361 361l-361 361l176 176l361 -360l364 360l174 -176l-361 -361l361 -361l-174 -177l-364 361l-361 -361z" />
<glyph unicode="&#xd8;" d="M95 768q0 160 62.5 306t168 251.5t251.5 168t306 62.5q191 0 348 -81l131 186l200 -120l-139 -197q118 -112 183.5 -260t65.5 -316q0 -160 -62 -306t-167.5 -251.5t-252 -168t-307.5 -62.5q-181 0 -353 81l-128 -184l-200 118l138 200q-115 109 -180 258t-65 315z M428 768q0 -174 104 -297l510 730q-82 25 -159 25q-194 0 -324.5 -131.5t-130.5 -326.5zM722 338q79 -28 161 -28q195 0 326.5 131.5t131.5 326.5q0 176 -107 302z" />
<glyph unicode="&#xd9;" horiz-adv-x="1564" d="M143 492v1044h338v-980q0 -117 86.5 -197t213.5 -80q129 0 215.5 80t86.5 197v980h338v-1044q0 -143 -83.5 -260t-230.5 -184.5t-326 -67.5q-176 0 -322.5 67t-231 185t-84.5 260zM371 2048h310l225 -381h-215z" />
<glyph unicode="&#xda;" horiz-adv-x="1564" d="M143 492v1044h338v-980q0 -117 86.5 -197t213.5 -80q129 0 215.5 80t86.5 197v980h338v-1044q0 -143 -83.5 -260t-230.5 -184.5t-326 -67.5q-176 0 -322.5 67t-231 185t-84.5 260zM655 1667l226 381h309l-320 -381h-215z" />
<glyph unicode="&#xdb;" horiz-adv-x="1564" d="M143 492v1044h338v-980q0 -117 86.5 -197t213.5 -80q129 0 215.5 80t86.5 197v980h338v-1044q0 -143 -83.5 -260t-230.5 -184.5t-326 -67.5q-176 0 -322.5 67t-231 185t-84.5 260zM430 1667l251 381h197l254 -381h-205l-146 199l-146 -199h-205z" />
<glyph unicode="&#xdc;" horiz-adv-x="1564" d="M143 492v1044h338v-980q0 -117 86.5 -197t213.5 -80q129 0 215.5 80t86.5 197v980h338v-1044q0 -143 -83.5 -260t-230.5 -184.5t-326 -67.5q-176 0 -322.5 67t-231 185t-84.5 260zM412 1869q0 64 46 108.5t108 44.5q64 0 110 -44.5t46 -108.5q0 -62 -46.5 -108 t-109.5 -46q-62 0 -108 46.5t-46 107.5zM842 1869q0 64 46 108.5t108 44.5q65 0 109 -44t44 -109q0 -62 -44.5 -108t-108.5 -46q-62 0 -108 46.5t-46 107.5z" />
<glyph unicode="&#xdd;" horiz-adv-x="1349" d="M-33 1536h381l328 -520l328 520h376l-535 -812v-724h-338v722zM550 1667l226 381h309l-320 -381h-215z" />
<glyph unicode="&#xde;" horiz-adv-x="1318" d="M166 0v1536h326v-225h322q190 0 323 -135.5t133 -330.5q0 -186 -133 -316t-323 -130h-322v-399h-326zM492 689h309q71 0 120 48.5t49 117.5q0 72 -48.5 119t-120.5 47h-309v-332z" />
<glyph unicode="&#xdf;" horiz-adv-x="1451" d="M166 0v1050q0 210 159 348t397 138q226 0 371.5 -125t145.5 -315q0 -169 -113 -290q94 -66 147 -164.5t53 -213.5q0 -188 -121.5 -313.5t-300.5 -114.5h-246v289h182q65 2 113 45.5t48 113.5q0 81 -62.5 139t-152.5 58h-72v266h28q77 0 133.5 53.5t56.5 126.5 q0 71 -58 116t-147 45q-101 0 -168 -57t-67 -145v-1050h-326z" />
<glyph unicode="&#xe0;" horiz-adv-x="1251" d="M118 274q0 137 87 218t235 81h351v77q0 67 -48.5 106.5t-125.5 39.5t-124.5 -35t-47.5 -95h-327q0 172 136.5 275t362.5 103t364 -116t138 -311v-218q0 -62 17.5 -97.5t46.5 -35.5h53v-266q-51 -20 -102 -20q-187 0 -279 143q-60 -68 -154 -105.5t-207 -37.5 q-171 0 -273.5 80t-102.5 214zM210 1536h310l225 -381h-215zM448 287q0 -40 37.5 -63.5t100.5 -23.5q86 0 140.5 47.5t64.5 128.5h-238q-48 0 -76.5 -24t-28.5 -65z" />
<glyph unicode="&#xe1;" horiz-adv-x="1251" d="M118 274q0 137 87 218t235 81h351v77q0 67 -48.5 106.5t-125.5 39.5t-124.5 -35t-47.5 -95h-327q0 172 136.5 275t362.5 103t364 -116t138 -311v-218q0 -62 17.5 -97.5t46.5 -35.5h53v-266q-51 -20 -102 -20q-187 0 -279 143q-60 -68 -154 -105.5t-207 -37.5 q-171 0 -273.5 80t-102.5 214zM448 287q0 -40 37.5 -63.5t100.5 -23.5q86 0 140.5 47.5t64.5 128.5h-238q-48 0 -76.5 -24t-28.5 -65zM494 1155l225 381h310l-320 -381h-215z" />
<glyph unicode="&#xe2;" horiz-adv-x="1251" d="M118 274q0 137 87 218t235 81h351v77q0 67 -48.5 106.5t-125.5 39.5t-124.5 -35t-47.5 -95h-327q0 172 136.5 275t362.5 103t364 -116t138 -311v-218q0 -62 17.5 -97.5t46.5 -35.5h53v-266q-51 -20 -102 -20q-187 0 -279 143q-60 -68 -154 -105.5t-207 -37.5 q-171 0 -273.5 80t-102.5 214zM269 1155l251 381h197l253 -381h-205l-145 199l-146 -199h-205zM448 287q0 -40 37.5 -63.5t100.5 -23.5q86 0 140.5 47.5t64.5 128.5h-238q-48 0 -76.5 -24t-28.5 -65z" />
<glyph unicode="&#xe3;" horiz-adv-x="1251" d="M118 274q0 137 87 218t235 81h351v77q0 67 -48.5 106.5t-125.5 39.5t-124.5 -35t-47.5 -95h-327q0 172 136.5 275t362.5 103t364 -116t138 -311v-218q0 -62 17.5 -97.5t46.5 -35.5h53v-266q-51 -20 -102 -20q-187 0 -279 143q-60 -68 -154 -105.5t-207 -37.5 q-171 0 -273.5 80t-102.5 214zM241 1162q0 147 65.5 237.5t179.5 90.5q127 0 213 -120q17 -34 43 -34q59 0 59 139h195q0 -144 -64 -235t-184 -91q-125 0 -208 121q-20 30 -46 30q-59 0 -59 -138h-194zM448 287q0 -40 37.5 -63.5t100.5 -23.5q86 0 140.5 47.5t64.5 128.5 h-238q-48 0 -76.5 -24t-28.5 -65z" />
<glyph unicode="&#xe4;" horiz-adv-x="1251" d="M118 274q0 137 87 218t235 81h351v77q0 67 -48.5 106.5t-125.5 39.5t-124.5 -35t-47.5 -95h-327q0 172 136.5 275t362.5 103t364 -116t138 -311v-218q0 -62 17.5 -97.5t46.5 -35.5h53v-266q-51 -20 -102 -20q-187 0 -279 143q-60 -68 -154 -105.5t-207 -37.5 q-171 0 -273.5 80t-102.5 214zM251 1357q0 64 45.5 108.5t107.5 44.5q64 0 110.5 -44.5t46.5 -108.5q0 -62 -47 -108t-110 -46q-61 0 -107 46t-46 108zM448 287q0 -40 37.5 -63.5t100.5 -23.5q86 0 140.5 47.5t64.5 128.5h-238q-48 0 -76.5 -24t-28.5 -65zM681 1357 q0 64 46 108.5t108 44.5q65 0 109 -44t44 -109q0 -62 -44.5 -108t-108.5 -46q-61 0 -107.5 46.5t-46.5 107.5z" />
<glyph unicode="&#xe5;" horiz-adv-x="1251" d="M118 274q0 137 87 218t235 81h351v77q0 67 -48.5 106.5t-125.5 39.5t-124.5 -35t-47.5 -95h-327q0 172 136.5 275t362.5 103t364 -116t138 -311v-218q0 -62 17.5 -97.5t46.5 -35.5h53v-266q-51 -20 -102 -20q-187 0 -279 143q-60 -68 -154 -105.5t-207 -37.5 q-171 0 -273.5 80t-102.5 214zM369 1357q0 102 73.5 174t177.5 72q102 0 173.5 -72t71.5 -174q0 -104 -71.5 -177.5t-173.5 -73.5q-104 0 -177.5 74t-73.5 177zM448 287q0 -40 37.5 -63.5t100.5 -23.5q86 0 140.5 47.5t64.5 128.5h-238q-48 0 -76.5 -24t-28.5 -65zM507 1357 q0 -54 31 -86t82 -32q49 0 82 32.5t33 85.5q0 47 -34 82.5t-81 35.5q-49 0 -81 -35.5t-32 -82.5z" />
<glyph unicode="&#xe6;" horiz-adv-x="2007" d="M118 292q0 149 103 233t283 84h274v49q0 69 -43.5 106.5t-117.5 41.5q-71 4 -117 -23.5t-52 -75.5l-282 79q37 121 158 189.5t296 68.5q229 0 360 -115q155 118 379 118q252 0 408 -146t158 -386l-2 -57h-794q21 -235 235 -235q86 0 145.5 34t80.5 96h317 q-39 -171 -181 -272t-359 -101q-286 0 -445 168q-176 -168 -425 -168q-180 0 -279.5 84t-99.5 228zM456 307q0 -47 33.5 -72t89.5 -25q68 0 130.5 38t96.5 103q-10 25 -15 64h-205q-58 0 -94 -29t-36 -79zM1147 655h433q-52 141 -216 141t-217 -141z" />
<glyph unicode="&#xe7;" horiz-adv-x="1269" d="M79 512q0 232 158 382t413 150q227 0 377 -120t184 -315h-338q-25 65 -84.5 104.5t-138.5 41.5q-106 -2 -174.5 -70.5t-68.5 -172.5t68.5 -172.5t174.5 -70.5q79 2 138.5 41.5t84.5 104.5h338q-31 -187 -172 -306t-355 -129l-59 -100q98 17 166.5 -38t68.5 -149 q0 -96 -66 -162t-162 -66q-78 0 -147 46.5t-93 112.5l143 46q14 -23 42 -40t55 -17q33 0 56.5 23.5t23.5 56.5q0 54 -47 68t-112 -20l-115 67l100 179q-209 33 -334 177t-125 348z" />
<glyph unicode="&#xe8;" horiz-adv-x="1303" d="M79 512q0 238 161.5 386.5t414.5 148.5q252 0 408 -146t158 -386l-2 -57h-794q21 -235 235 -235q86 0 145.5 34t80.5 96h317q-39 -171 -181 -272t-359 -101q-260 0 -422 146.5t-162 385.5zM256 1539h310l225 -382h-215zM443 655h433q-52 141 -216 141t-217 -141z" />
<glyph unicode="&#xe9;" horiz-adv-x="1303" d="M79 512q0 238 161.5 386.5t414.5 148.5q252 0 408 -146t158 -386l-2 -57h-794q21 -235 235 -235q86 0 145.5 34t80.5 96h317q-39 -171 -181 -272t-359 -101q-260 0 -422 146.5t-162 385.5zM443 655h433q-52 141 -216 141t-217 -141zM540 1157l225 382h310l-320 -382h-215 z" />
<glyph unicode="&#xea;" horiz-adv-x="1303" d="M79 512q0 238 161.5 386.5t414.5 148.5q252 0 408 -146t158 -386l-2 -57h-794q21 -235 235 -235q86 0 145.5 34t80.5 96h317q-39 -171 -181 -272t-359 -101q-260 0 -422 146.5t-162 385.5zM315 1157l251 382h197l253 -382h-204l-146 200l-146 -200h-205zM443 655h433 q-52 141 -216 141t-217 -141z" />
<glyph unicode="&#xeb;" horiz-adv-x="1303" d="M79 512q0 238 161.5 386.5t414.5 148.5q252 0 408 -146t158 -386l-2 -57h-794q21 -235 235 -235q86 0 145.5 34t80.5 96h317q-39 -171 -181 -272t-359 -101q-260 0 -422 146.5t-162 385.5zM297 1359q0 64 46 109t108 45q64 0 110 -44.5t46 -109.5q0 -62 -46.5 -107.5 t-109.5 -45.5q-62 0 -108 46t-46 107zM443 655h433q-52 141 -216 141t-217 -141zM727 1359q0 64 46 109t108 45q65 0 109 -44.5t44 -109.5q0 -62 -44.5 -107.5t-108.5 -45.5q-62 0 -108 46t-46 107z" />
<glyph unicode="&#xec;" horiz-adv-x="655" d="M-82 1536h310l225 -381h-215zM164 0v1024h328v-1024h-328z" />
<glyph unicode="&#xed;" horiz-adv-x="655" d="M164 0v1024h328v-1024h-328zM202 1155l226 381h309l-320 -381h-215z" />
<glyph unicode="&#xee;" horiz-adv-x="655" d="M-23 1155l251 381h197l253 -381h-204l-146 199l-146 -199h-205zM164 0v1024h328v-1024h-328z" />
<glyph unicode="&#xef;" horiz-adv-x="655" d="M-41 1357q0 64 46 108.5t108 44.5q64 0 110 -44.5t46 -108.5q0 -62 -46.5 -108t-109.5 -46q-61 0 -107.5 46.5t-46.5 107.5zM164 0v1024h328v-1024h-328zM389 1357q0 64 46 108.5t108 44.5q65 0 109 -44t44 -109q0 -62 -44.5 -108t-108.5 -46q-61 0 -107.5 46.5 t-46.5 107.5z" />
<glyph unicode="&#xf0;" horiz-adv-x="1290" d="M79 512q0 109 45 208t121.5 170t183 112.5t224.5 41.5q88 0 148 -17q-62 126 -161 209l-92 -117l-149 112l77 98q-113 40 -235 35l66 259q177 0 346 -72l102 131l146 -113l-87 -112q193 -144 302.5 -388.5t109.5 -556.5q0 -146 -75.5 -268.5t-207 -193t-290.5 -70.5 q-118 0 -224.5 41.5t-183 112.5t-121.5 170t-45 208zM410 512q0 -102 70.5 -172.5t172.5 -70.5t172.5 70.5t70.5 172.5t-70.5 172.5t-172.5 70.5t-172.5 -70.5t-70.5 -172.5z" />
<glyph unicode="&#xf1;" horiz-adv-x="1267" d="M151 0v1024h328v-128q56 70 135.5 109t171.5 39q153 0 252 -106t99 -275v-663h-325v594q0 69 -45.5 115t-116.5 46q-72 0 -121.5 -46t-49.5 -115v-594h-328zM271 1162q0 146 66 237t180 91q127 0 213 -120q17 -34 43 -34q59 0 59 139h195q0 -144 -64.5 -235t-184.5 -91 q-124 0 -207 121q-20 30 -46 30q-59 0 -59 -138h-195z" />
<glyph unicode="&#xf2;" horiz-adv-x="1300" d="M79 512q0 232 158 382t413 150t412 -149.5t157 -382.5t-157 -382.5t-412 -149.5t-413 150t-158 382zM241 1536h309l226 -381h-215zM407 512q0 -104 68.5 -172.5t174.5 -70.5q104 2 173.5 71t69.5 172t-69.5 172t-173.5 71q-106 -2 -174.5 -70.5t-68.5 -172.5z" />
<glyph unicode="&#xf3;" horiz-adv-x="1300" d="M79 512q0 232 158 382t413 150t412 -149.5t157 -382.5t-157 -382.5t-412 -149.5t-413 150t-158 382zM407 512q0 -104 68.5 -172.5t174.5 -70.5q104 2 173.5 71t69.5 172t-69.5 172t-173.5 71q-106 -2 -174.5 -70.5t-68.5 -172.5zM525 1155l225 381h310l-320 -381h-215z " />
<glyph unicode="&#xf4;" horiz-adv-x="1300" d="M79 512q0 232 158 382t413 150t412 -149.5t157 -382.5t-157 -382.5t-412 -149.5t-413 150t-158 382zM300 1155l250 381h198l253 -381h-205l-146 199l-146 -199h-204zM407 512q0 -104 68.5 -172.5t174.5 -70.5q104 2 173.5 71t69.5 172t-69.5 172t-173.5 71 q-106 -2 -174.5 -70.5t-68.5 -172.5z" />
<glyph unicode="&#xf5;" horiz-adv-x="1300" d="M79 512q0 232 158 382t413 150t412 -149.5t157 -382.5t-157 -382.5t-412 -149.5t-413 150t-158 382zM271 1162q0 146 66 237t180 91q127 0 213 -120q17 -34 43 -34q59 0 59 139h195q0 -144 -64.5 -235t-184.5 -91q-124 0 -207 121q-20 30 -46 30q-59 0 -59 -138h-195z M407 512q0 -104 68.5 -172.5t174.5 -70.5q104 2 173.5 71t69.5 172t-69.5 172t-173.5 71q-106 -2 -174.5 -70.5t-68.5 -172.5z" />
<glyph unicode="&#xf6;" horiz-adv-x="1300" d="M79 512q0 232 158 382t413 150t412 -149.5t157 -382.5t-157 -382.5t-412 -149.5t-413 150t-158 382zM282 1357q0 64 45.5 108.5t107.5 44.5q64 0 110 -44.5t46 -108.5q0 -62 -46.5 -108t-109.5 -46q-61 0 -107 46t-46 108zM407 512q0 -104 68.5 -172.5t174.5 -70.5 q104 2 173.5 71t69.5 172t-69.5 172t-173.5 71q-106 -2 -174.5 -70.5t-68.5 -172.5zM712 1357q0 64 45.5 108.5t107.5 44.5q65 0 109.5 -44t44.5 -109q0 -62 -45 -108t-109 -46q-61 0 -107 46t-46 108z" />
<glyph unicode="&#xf7;" horiz-adv-x="1472" d="M120 481v164h1229v-164h-1229zM576 151q0 63 48 111t111 48t112 -48t49 -111q0 -66 -48.5 -113.5t-112.5 -47.5t-111.5 47t-47.5 114zM576 975q0 63 48 112.5t111 49.5t112 -49.5t49 -112.5q0 -66 -48.5 -112t-112.5 -46t-111.5 46t-47.5 112z" />
<glyph unicode="&#xf8;" horiz-adv-x="1300" d="M79 512q0 232 158 382t413 150q135 0 246 -43l77 110l133 -82l-74 -107q89 -72 138 -178t49 -232q0 -233 -157 -382.5t-412 -149.5q-132 0 -246 43l-74 -107l-133 79l74 105q-93 73 -142.5 178.5t-49.5 233.5zM407 512q0 -81 46 -148l266 381q-46 10 -69 10 q-106 -2 -174.5 -70.5t-68.5 -172.5zM584 279q25 -10 66 -10q104 2 173.5 71t69.5 172q0 79 -46 146z" />
<glyph unicode="&#xf9;" horiz-adv-x="1221" d="M128 392v632h328v-589q0 -72 43.5 -119t109.5 -47q68 0 112 46.5t44 119.5v589h326v-632q0 -191 -126 -301.5t-356 -110.5q-229 0 -355 110.5t-126 301.5zM207 1536h310l225 -381h-215z" />
<glyph unicode="&#xfa;" horiz-adv-x="1221" d="M128 392v632h328v-589q0 -72 43.5 -119t109.5 -47q68 0 112 46.5t44 119.5v589h326v-632q0 -191 -126 -301.5t-356 -110.5q-229 0 -355 110.5t-126 301.5zM492 1155l225 381h310l-320 -381h-215z" />
<glyph unicode="&#xfb;" horiz-adv-x="1221" d="M128 392v632h328v-589q0 -72 43.5 -119t109.5 -47q68 0 112 46.5t44 119.5v589h326v-632q0 -191 -126 -301.5t-356 -110.5q-229 0 -355 110.5t-126 301.5zM266 1155l251 381h197l254 -381h-205l-146 199l-146 -199h-205z" />
<glyph unicode="&#xfc;" horiz-adv-x="1221" d="M128 392v632h328v-589q0 -72 43.5 -119t109.5 -47q68 0 112 46.5t44 119.5v589h326v-632q0 -191 -126 -301.5t-356 -110.5q-229 0 -355 110.5t-126 301.5zM248 1357q0 64 46 108.5t108 44.5q64 0 110 -44.5t46 -108.5q0 -62 -46.5 -108t-109.5 -46q-62 0 -108 46.5 t-46 107.5zM678 1357q0 64 46 108.5t108 44.5q65 0 109.5 -44t44.5 -109q0 -62 -45 -108t-109 -46q-62 0 -108 46.5t-46 107.5z" />
<glyph unicode="&#xfd;" horiz-adv-x="1162" d="M-13 1024h341l256 -678l251 678h337l-655 -1638h-343l241 591zM453 1155l225 381h310l-320 -381h-215z" />
<glyph unicode="&#xfe;" horiz-adv-x="1367" d="M166 -614v2183h326v-632q119 107 289 107q141 0 257 -70.5t181.5 -192.5t65.5 -269t-65.5 -269t-181.5 -192.5t-257 -70.5q-170 0 -289 107v-701h-326zM492 512q0 -102 70.5 -172.5t172.5 -70.5t172.5 70.5t70.5 172.5t-70.5 172.5t-172.5 70.5t-172.5 -70.5 t-70.5 -172.5z" />
<glyph unicode="&#xff;" horiz-adv-x="1162" d="M-13 1024h341l256 -678l251 678h337l-655 -1638h-343l241 591zM210 1357q0 64 46 108.5t108 44.5q64 0 110 -44.5t46 -108.5q0 -62 -46.5 -108t-109.5 -46q-62 0 -108 46.5t-46 107.5zM640 1357q0 64 46 108.5t108 44.5q65 0 109 -44t44 -109q0 -62 -44.5 -108 t-108.5 -46q-62 0 -108 46.5t-46 107.5z" />
<glyph unicode="&#x152;" horiz-adv-x="2114" d="M95 768q0 160 62.5 306t168 251.5t251.5 168t306 62.5q133 0 259 -40v20h868v-289h-564v-333h477v-292h-477v-333h564v-289h-868v20q-126 -40 -259 -40q-160 0 -306 62.5t-251.5 168t-168 251.5t-62.5 306zM422 768q0 -194 133.5 -328.5t327.5 -134.5q143 0 259 79v768 q-116 79 -259 79q-194 0 -327.5 -134.5t-133.5 -328.5z" />
<glyph unicode="&#x153;" horiz-adv-x="2122" d="M79 512q0 232 158 382t413 150q252 0 410 -145q156 148 415 148q252 0 407.5 -146t157.5 -386l-2 -57h-794q21 -235 236 -235q86 0 145 34t80 96h317q-39 -171 -181 -272t-359 -101q-263 0 -422 148q-156 -148 -410 -148q-255 0 -413 150t-158 382zM407 512 q0 -104 68.5 -172.5t174.5 -70.5q104 2 173.5 71t69.5 172t-69.5 172t-173.5 71q-106 -2 -174.5 -70.5t-68.5 -172.5zM1262 655h433q-52 141 -215 141q-165 0 -218 -141z" />
<glyph unicode="&#x178;" horiz-adv-x="1349" d="M-33 1536h381l328 -520l328 520h376l-535 -812v-724h-338v722zM307 1869q0 64 46 108.5t108 44.5q64 0 110 -44.5t46 -108.5q0 -62 -46.5 -108t-109.5 -46q-61 0 -107.5 46.5t-46.5 107.5zM737 1869q0 64 46 108.5t108 44.5q65 0 109 -44t44 -109q0 -62 -44.5 -108 t-108.5 -46q-61 0 -107.5 46.5t-46.5 107.5z" />
<glyph unicode="&#x2c6;" horiz-adv-x="227" d="M110 1155l251 381h197l254 -381h-205l-146 199l-146 -199h-205z" />
<glyph unicode="&#x2dc;" horiz-adv-x="122" d="M31 1224q0 146 65.5 236.5t179.5 90.5q127 0 213 -120q17 -33 43 -33q33 0 46 35t13 103h195q0 -144 -64 -234.5t-184 -90.5q-126 0 -208 120q-20 31 -46 31q-59 0 -59 -138h-194z" />
<glyph unicode="&#x2000;" horiz-adv-x="1024" />
<glyph unicode="&#x2001;" horiz-adv-x="2048" />
<glyph unicode="&#x2002;" horiz-adv-x="1024" />
<glyph unicode="&#x2003;" horiz-adv-x="2048" />
<glyph unicode="&#x2004;" horiz-adv-x="682" />
<glyph unicode="&#x2005;" horiz-adv-x="512" />
<glyph unicode="&#x2006;" horiz-adv-x="341" />
<glyph unicode="&#x2007;" horiz-adv-x="341" />
<glyph unicode="&#x2008;" horiz-adv-x="256" />
<glyph unicode="&#x2009;" horiz-adv-x="409" />
<glyph unicode="&#x200a;" horiz-adv-x="113" />
<glyph unicode="&#x2010;" horiz-adv-x="1036" d="M161 420v225h717v-225h-717z" />
<glyph unicode="&#x2011;" horiz-adv-x="1036" d="M161 420v225h717v-225h-717z" />
<glyph unicode="&#x2012;" horiz-adv-x="1036" d="M161 420v225h717v-225h-717z" />
<glyph unicode="&#x2013;" horiz-adv-x="1344" d="M161 420v225h1024v-225h-1024z" />
<glyph unicode="&#x2014;" horiz-adv-x="2048" d="M0 420v225h2048v-225h-2048z" />
<glyph unicode="&#x2018;" horiz-adv-x="558" d="M72 937l276 619h169l-174 -619h-271z" />
<glyph unicode="&#x2019;" horiz-adv-x="481" d="M100 952l174 620h271l-276 -620h-169z" />
<glyph unicode="&#x201a;" horiz-adv-x="581" d="M87 -399l174 619h271l-276 -619h-169z" />
<glyph unicode="&#x201c;" horiz-adv-x="1072" d="M110 937l277 619h169l-175 -619h-271zM548 937l276 619h169l-174 -619h-271z" />
<glyph unicode="&#x201d;" horiz-adv-x="1026" d="M59 1065l174 619h271l-276 -619h-169zM499 1065l174 619h272l-277 -619h-169z" />
<glyph unicode="&#x201e;" horiz-adv-x="1044" d="M87 -399l174 619h271l-276 -619h-169zM540 -399l174 619h272l-277 -619h-169z" />
<glyph unicode="&#x2022;" horiz-adv-x="1285" d="M223 684q0 170 125.5 294.5t294.5 124.5q111 0 207 -56.5t153 -153.5t57 -209q0 -173 -123.5 -295.5t-293.5 -122.5t-295 122.5t-125 295.5z" />
<glyph unicode="&#x2026;" horiz-adv-x="2058" d="M161 166q0 76 55 131.5t130 55.5q77 0 133 -55.5t56 -131.5t-56 -131t-133 -55q-75 0 -130 55t-55 131zM850 166q0 76 54.5 131.5t129.5 55.5q77 0 133.5 -55.5t56.5 -131.5t-56.5 -131t-133.5 -55q-75 0 -129.5 55t-54.5 131zM1539 166q0 76 54.5 131.5t129.5 55.5 q77 0 133 -55.5t56 -131.5t-56 -131t-133 -55q-75 0 -129.5 55t-54.5 131z" />
<glyph unicode="&#x202f;" horiz-adv-x="409" />
<glyph unicode="&#x2039;" horiz-adv-x="811" d="M102 571l313 376h256l-313 -376l313 -376h-256z" />
<glyph unicode="&#x203a;" horiz-adv-x="811" d="M141 195l312 376l-312 376h256l312 -376l-312 -376h-256z" />
<glyph unicode="&#x205f;" horiz-adv-x="512" />
<glyph unicode="&#x20ac;" horiz-adv-x="1505" d="M23 527v162h125q0 13 -1 39.5t-1 39.5t1 39.5t1 39.5h-125v162h159q76 243 281.5 395t470.5 152q173 0 361 -97l-87 -281q-59 42 -132.5 65.5t-141.5 23.5q-142 0 -257.5 -69.5t-179.5 -188.5h658l-47 -162h-665q-5 -43 -5 -79t5 -79h617l-49 -162h-514 q64 -119 179.5 -188.5t257.5 -69.5q86 0 181.5 39.5t161.5 101.5v-341q-175 -89 -343 -89q-265 0 -470.5 152t-281.5 395h-159z" />
<glyph unicode="&#x2122;" horiz-adv-x="1710" d="M79 1400v136h520v-136h-182v-581h-158v581h-180zM745 819v717h171l226 -338l230 338h164v-717h-154v474l-240 -356l-241 356v-474h-156z" />
<glyph unicode="&#x25fc;" horiz-adv-x="1024" d="M0 0v1024h1024v-1024h-1024z" />
</font>
</defs>
</svg>
