<?xml version="1.0" standalone="no"?>
<!DOCTYPE svg PUBLIC "-//W3C//DTD SVG 1.1//EN" "http://www.w3.org/Graphics/SVG/1.1/DTD/svg11.dtd" >
<svg xmlns="http://www.w3.org/2000/svg" xmlns:xlink="http://www.w3.org/1999/xlink" version="1.1">
<metadata></metadata>
<defs>
<font id="now_altblack" horiz-adv-x="1748" >
<font-face units-per-em="2048" ascent="1638" descent="-410" />
<missing-glyph horiz-adv-x="614" />
<glyph unicode="&#xfb01;" horiz-adv-x="1456" d="M13 742v282h171v271q0 175 128.5 296.5t307.5 121.5q56 0 105 -10t69 -24v-294h-126q-48 0 -75 -35.5t-27 -97.5v-228h233v-282h-233v-742h-382v742h-171zM922 1393q0 82 59.5 140.5t142.5 58.5t142.5 -58.5t59.5 -140.5q0 -83 -60 -143t-142 -60t-142 60t-60 143zM934 0 v1024h379v-1024h-379z" />
<glyph unicode="&#xfb02;" horiz-adv-x="1454" d="M13 742v282h171v271q0 175 128.5 296.5t307.5 121.5q56 0 105 -10t69 -24v-294h-126q-48 0 -75 -35.5t-27 -97.5v-228h233v-282h-233v-742h-382v742h-171zM934 0v1713h379v-1713h-379z" />
<glyph horiz-adv-x="0" />
<glyph horiz-adv-x="682" />
<glyph unicode=" "  horiz-adv-x="614" />
<glyph unicode="&#x09;" horiz-adv-x="614" />
<glyph unicode="&#xa0;" horiz-adv-x="614" />
<glyph unicode="!" horiz-adv-x="757" d="M177 179q0 86 58.5 145.5t143.5 59.5t143.5 -59.5t58.5 -145.5q0 -83 -58.5 -141t-143.5 -58t-143.5 58t-58.5 141zM189 1526h379l-48 -965h-282z" />
<glyph unicode="&#x22;" horiz-adv-x="1185" d="M177 1556h355l-48 -698h-259zM655 1556h354l-46 -698h-259z" />
<glyph unicode="#" horiz-adv-x="1802" d="M128 325l36 261h289l51 343h-292l44 259h284l46 333h261l-43 -333h315l48 333h261l-46 -333h292l-41 -259h-286l-49 -343h287l-36 -261h-287l-49 -325h-261l46 325h-320l-43 -325h-264l46 325h-289zM717 586h317l49 343h-320z" />
<glyph unicode="$" horiz-adv-x="1246" d="M33 333l320 199q41 -87 118.5 -136.5t176.5 -49.5q73 0 112 29t39 76q0 37 -24 65.5t-64.5 48t-93 37t-110.5 36.5t-115.5 42t-110 58.5t-93 81t-64.5 114.5t-24 154q0 94 28.5 172t79 131.5t112.5 89.5t136 55v159h327v-162q195 -56 323 -204l-256 -249 q-125 133 -243 133q-49 0 -81 -24.5t-32 -72.5q0 -37 24 -65t64 -47t92.5 -35.5t110 -36t115 -43.5t110 -62.5t92.5 -88t64 -124.5t24 -169q0 -178 -113.5 -297.5t-293.5 -155.5v-151h-327v162q-141 40 -251.5 128t-171.5 202z" />
<glyph unicode="%" horiz-adv-x="1843" d="M102 1160q0 165 104 280.5t252 115.5q147 0 250.5 -115.5t103.5 -280.5t-104 -281t-250 -116q-148 0 -252 116t-104 281zM215 0l1021 1536h390l-1022 -1536h-389zM384 1160q0 -49 22.5 -82.5t51.5 -33.5q26 0 49 34t23 82t-23 81.5t-49 33.5q-29 0 -51.5 -33t-22.5 -82z M1032 376q0 165 104 281t252 116q146 0 249.5 -116t103.5 -281t-103.5 -280.5t-249.5 -115.5q-148 0 -252 115.5t-104 280.5zM1316 376q0 -49 21.5 -82t50.5 -33q26 0 48.5 33.5t22.5 81.5t-22.5 82t-48.5 34q-29 0 -50.5 -33.5t-21.5 -82.5z" />
<glyph unicode="&#x26;" horiz-adv-x="1515" d="M177 1101q0 124 55 226.5t154.5 159.5t220.5 46h312v-327h-238q-48 -2 -86.5 -40t-38.5 -93q0 -69 55 -119t131 -50h177v207h379v-207h174v-308h-174v-94q0 -220 -158 -362.5t-403 -142.5q-154 0 -280 58t-199.5 162t-73.5 234q0 179 136 307q-143 143 -143 343zM540 456 q0 -57 57 -92.5t135 -35.5q87 0 137 48t50 126v94h-220q-64 0 -111.5 -43.5t-47.5 -96.5z" />
<glyph unicode="'" horiz-adv-x="709" d="M177 1556h355l-48 -616h-259z" />
<glyph unicode="(" horiz-adv-x="926" d="M136 586q0 267 33.5 475t92.5 345t144 225t181.5 124t211.5 34v-268q-57 2 -105.5 -25t-91 -94.5t-72.5 -173t-47 -269t-17 -373.5q0 -209 17 -370.5t47 -266t72.5 -171t91 -92.5t105.5 -24v-269q-115 -2 -211.5 33.5t-181.5 122.5t-144 222.5t-92.5 342.5t-33.5 472z " />
<glyph unicode=")" horiz-adv-x="926" d="M125 -338q57 -2 105.5 24t91 92.5t72.5 171t47 266t17 370.5q0 210 -17 373.5t-47 269t-72.5 173t-91 94.5t-105.5 25v268q116 2 213 -34t181.5 -124t143 -225t92 -345t33.5 -475q0 -265 -33.5 -472t-92 -342.5t-143 -222.5t-181.5 -122.5t-213 -33.5v269z" />
<glyph unicode="*" horiz-adv-x="806" d="M95 1165v179l205 -28l-126 159l151 94l79 -197l77 197l156 -94l-128 -159l203 28v-179l-203 33l128 -164l-156 -89l-77 192l-79 -192l-151 89l126 164z" />
<glyph unicode="+" horiz-adv-x="1623" d="M177 494v282h494v494h281v-494h494v-282h-494v-494h-281v494h-494z" />
<glyph unicode="," horiz-adv-x="696" d="M5 -381l236 655h358l-371 -655h-223z" />
<glyph unicode="-" horiz-adv-x="1082" d="M182 410v245h717v-245h-717z" />
<glyph unicode="." horiz-adv-x="765" d="M182 179q0 82 59 141t140 59q83 0 143 -59t60 -141q0 -81 -60 -140t-143 -59q-81 0 -140 59t-59 140z" />
<glyph unicode="/" horiz-adv-x="1448" d="M-41 -614l1178 2327h353l-1180 -2327h-351z" />
<glyph unicode="0" horiz-adv-x="1395" d="M115 768q0 240 63.5 415t196 274t324.5 99q190 0 321 -99t194 -274t63 -415t-63 -415t-194 -274t-321 -99q-192 0 -324.5 99t-196 274t-63.5 415zM494 768q0 -88 5.5 -155t19 -126t36.5 -96.5t59 -59t85 -21.5q47 0 82.5 21.5t57.5 59t35.5 96.5t19 126t5.5 155t-5.5 155 t-19 126t-35.5 96.5t-57.5 59t-82.5 21.5q-49 0 -85 -21.5t-59 -59t-36.5 -96.5t-19 -126t-5.5 -155z" />
<glyph unicode="1" horiz-adv-x="878" d="M54 1206v330h604v-1536h-379v1206h-225z" />
<glyph unicode="2" horiz-adv-x="1146" d="M-56 0l591 794q105 141 132 192.5t27 98.5q0 42 -13.5 72t-36 44t-43.5 19.5t-43 5.5q-64 0 -101.5 -45t-23.5 -119h-364q-11 106 26.5 200t109.5 158.5t169 101.5t202 37q206 0 343.5 -127t135.5 -316q-2 -128 -52.5 -229t-201.5 -301l-197 -256h471v-330h-1131z" />
<glyph unicode="3" horiz-adv-x="1259" d="M95 425l371 5q0 -41 43.5 -70.5t102.5 -29.5q75 0 118 47t43 122t-42 121t-111 46h-489l409 540h-445v330h1075l-489 -612q207 0 335 -112t128 -323q0 -139 -69.5 -256t-192.5 -185t-273 -68q-212 0 -363 130t-151 315z" />
<glyph unicode="4" horiz-adv-x="1328" d="M18 323l619 1213h479v-883h118v-330h-118v-323h-379v323h-719zM476 653h261v537z" />
<glyph unicode="5" horiz-adv-x="1310" d="M84 179l26 341h72q51 -62 105.5 -103t110 -60.5t102.5 -26.5t104 -7q100 0 165.5 55.5t65.5 141.5q0 83 -54 141t-136 58q-58 0 -121 -29t-104 -73l-295 179l62 735h921v-328h-629l-18 -266q113 110 281 110q209 0 340 -145t131 -367q0 -159 -75.5 -286t-209.5 -198 t-301 -71q-147 0 -301.5 57t-241.5 142z" />
<glyph unicode="6" horiz-adv-x="1359" d="M97 530q4 155 118 328l474 678h425l-349 -466q6 -1 17.5 -2t16.5 -3q206 -37 339 -193.5t129 -356.5q-2 -114 -51 -215t-129.5 -171t-188.5 -110t-225 -39q-160 1 -293 73.5t-209 198.5t-74 278zM468 527q-4 -96 52.5 -162t155.5 -68q96 -4 158.5 59.5t64.5 158.5 q2 97 -55.5 164t-154.5 69t-157 -61t-64 -160z" />
<glyph unicode="7" horiz-adv-x="1149" d="M59 1206v330h1073v-282l-653 -1254h-407l652 1206h-665z" />
<glyph unicode="8" horiz-adv-x="1256" d="M67 474q0 122 55 220.5t154 160.5q-117 114 -117 282q0 179 133 299t335 120q204 0 336.5 -119.5t132.5 -299.5q0 -169 -118 -279q101 -64 158 -163.5t57 -220.5q0 -212 -160.5 -353t-405.5 -141q-243 0 -401.5 141t-158.5 353zM445 504q0 -83 52 -138.5t130 -55.5 q80 0 132.5 55.5t52.5 138.5q0 80 -51.5 130t-133.5 50q-79 0 -130.5 -50t-51.5 -130zM474 1108q0 -68 44 -112t112 -44q65 0 109 44.5t44 111.5t-44 112t-109 45q-67 0 -111.5 -44.5t-44.5 -112.5z" />
<glyph unicode="9" horiz-adv-x="1359" d="M97 1021q1 152 84 276.5t218 192t290 66.5q160 -1 293.5 -73.5t210 -198.5t74.5 -278q-4 -146 -118 -328l-476 -678h-422l348 466q-19 0 -36 5q-206 37 -338 193.5t-128 356.5zM463 1021q-2 -96 56 -162.5t157 -70.5q97 -4 157.5 60t62.5 161q2 96 -54 162t-153 68 q-97 4 -159.5 -59.5t-66.5 -158.5z" />
<glyph unicode=":" horiz-adv-x="770" d="M184 179q0 84 59.5 144.5t140.5 60.5q83 0 142.5 -60t59.5 -145q0 -81 -60 -140t-142 -59q-81 0 -140.5 59t-59.5 140zM184 845q0 81 59.5 140t140.5 59q82 0 142 -59t60 -140q0 -85 -59.5 -145t-142.5 -60q-81 0 -140.5 60.5t-59.5 144.5z" />
<glyph unicode=";" horiz-adv-x="778" d="M51 -381l236 655h358l-371 -655h-223zM182 845q0 81 59 140t140 59q84 0 144.5 -59t60.5 -140q0 -85 -60 -145t-145 -60q-81 0 -140 60.5t-59 144.5z" />
<glyph unicode="&#x3c;" horiz-adv-x="1484" d="M177 625v335l1131 566v-307l-845 -428l845 -427v-310z" />
<glyph unicode="=" horiz-adv-x="1459" d="M115 218v233h1229v-233h-1229zM115 635v233h1229v-233h-1229z" />
<glyph unicode="&#x3e;" horiz-adv-x="1484" d="M177 54v310l844 427l-844 428v307l1131 -566v-335z" />
<glyph unicode="?" horiz-adv-x="1372" d="M187 960q-20 161 44 296.5t194.5 214t296.5 78.5q146 0 268.5 -66.5t193 -181t70.5 -249.5q0 -89 -20 -156.5t-51.5 -105t-70 -64.5t-77.5 -43.5t-70.5 -32t-51.5 -40.5t-20 -60v-74h-340v56q0 92 20.5 155t53 94t72 50.5t79.5 33t72.5 32t53 57t20.5 98.5q0 69 -60 119 t-142 50q-111 0 -170 -77t-32 -184h-333zM527 179q0 86 59 145.5t144 59.5t143.5 -59.5t58.5 -145.5q0 -83 -58.5 -141t-143.5 -58t-144 58t-59 141z" />
<glyph unicode="@" horiz-adv-x="1295" d="M115 566q0 153 74.5 281t202.5 202.5t281 74.5q188 0 317 -108t129 -266v-445h-213v30q-79 -53 -169 -53q-103 0 -175.5 74.5t-72.5 183.5q0 106 72.5 181t173.5 75q96 0 171 -59v13q0 68 -67 114.5t-166 46.5q-142 0 -242.5 -100.5t-100.5 -244.5q0 -149 107.5 -251.5 t261.5 -102.5h420v-212h-420q-161 0 -295.5 75t-211.5 205t-77 286zM737 540q0 -37 27 -60.5t68 -23.5q44 0 74 33v102q-31 31 -74 31q-41 0 -68 -23t-27 -59z" />
<glyph unicode="A" horiz-adv-x="1459" d="M-46 0l555 1536h438l556 -1536h-420l-85 269h-537l-85 -269h-422zM561 586h340l-171 543z" />
<glyph unicode="B" horiz-adv-x="1405" d="M141 0v1536h681q100 0 185.5 -29t150 -82.5t101 -136.5t36.5 -185q0 -227 -174 -322q226 -98 226 -356q0 -137 -63 -234.5t-166.5 -144t-236.5 -46.5h-740zM532 340h290q57 0 95 40.5t38 95.5q0 53 -38.5 94.5t-94.5 41.5h-290v-272zM532 924h241q53 0 92 41.5t39 94.5 q0 54 -38.5 95t-92.5 41h-241v-272z" />
<glyph unicode="C" horiz-adv-x="1638" d="M87 768q0 160 62 306t167.5 251.5t252 168t307.5 62.5q225 0 413 -117.5t288 -312.5l-338 -171q-51 101 -146.5 159t-216.5 58q-175 0 -291.5 -115t-116.5 -289t116.5 -289t291.5 -115q121 0 216.5 58t146.5 159l338 -171q-100 -195 -288 -312.5t-413 -117.5 q-161 0 -307.5 62.5t-252 168t-167.5 251.5t-62 306z" />
<glyph unicode="D" horiz-adv-x="1528" d="M141 0v1536h532q156 0 298 -60.5t245 -163.5t164 -245.5t61 -298.5t-61 -298.5t-164 -245.5t-245 -163.5t-298 -60.5h-532zM532 340h141q159 0 269 124t110 304t-110 304t-269 124h-141v-856z" />
<glyph unicode="E" horiz-adv-x="1192" d="M154 0v1536h952v-340h-561v-259h474v-338h-474v-259h561v-340h-952z" />
<glyph unicode="F" horiz-adv-x="1123" d="M154 0v1536h952v-340h-561v-259h474v-338h-474v-599h-391z" />
<glyph unicode="G" d="M87 768q0 160 62 306t167.5 251.5t252 168t307.5 62.5q225 0 413 -117.5t288 -312.5l-338 -171q-51 101 -146.5 159t-216.5 58q-175 0 -291.5 -115t-116.5 -289t116.5 -289t291.5 -115q111 0 202 50.5t146 138.5h-351v299h791v-84q0 -160 -62.5 -306t-168 -251.5 t-251.5 -168t-306 -62.5q-161 0 -307.5 62.5t-252 168t-167.5 251.5t-62 306z" />
<glyph unicode="H" horiz-adv-x="1620" d="M141 0v1536h391v-596h553v596h392v-1536h-392v599h-553v-599h-391z" />
<glyph unicode="I" horiz-adv-x="696" d="M154 0v1536h391v-1536h-391z" />
<glyph unicode="J" horiz-adv-x="1216" d="M61 315l387 118q8 -51 42.5 -83.5t82.5 -32.5q54 0 92.5 40t38.5 96v743h-497v340h889v-1134q0 -198 -135 -310t-388 -112q-223 0 -353.5 88.5t-158.5 246.5z" />
<glyph unicode="K" horiz-adv-x="1569" d="M141 0v1536h391v-515h44l463 515h500l-648 -673l742 -863h-519l-556 686h-26v-686h-391z" />
<glyph unicode="L" horiz-adv-x="1021" d="M141 0v1536h391v-1196h489v-340h-880z" />
<glyph unicode="M" horiz-adv-x="2037" d="M141 0v1536h425l453 -978l456 978h422v-1536h-392v822l-381 -822h-210l-382 827v-827h-391z" />
<glyph unicode="N" horiz-adv-x="1776" d="M141 0v1536h409l694 -940v940h392v-1536h-412l-692 942v-942h-391z" />
<glyph unicode="O" d="M87 768q0 160 62 306t167.5 251.5t252 168t307.5 62.5q160 0 306 -62.5t251.5 -168t168 -251.5t62.5 -306t-62.5 -306t-168 -251.5t-251.5 -168t-306 -62.5q-161 0 -307.5 62.5t-252 168t-167.5 251.5t-62 306zM468 768q0 -174 116.5 -289t291.5 -115q173 0 288.5 115 t115.5 289t-115.5 289t-288.5 115q-175 0 -291.5 -115t-116.5 -289z" />
<glyph unicode="P" horiz-adv-x="1292" d="M141 0v1536h683q198 0 334.5 -138.5t136.5 -335.5q0 -198 -135 -329t-336 -131h-292v-602h-391zM532 919h228q69 0 114 40t45 101q0 59 -45 97.5t-114 38.5h-228v-277z" />
<glyph unicode="Q" d="M87 768q0 160 62 306t167.5 251.5t252 168t307.5 62.5q160 0 306 -62.5t251.5 -168t168 -251.5t62.5 -306q0 -171 -69.5 -323.5t-191.5 -262.5l184 87h133v-269h-665q-86 -20 -179 -20q-161 0 -307.5 62.5t-252 168t-167.5 251.5t-62 306zM468 768q0 -174 116.5 -289 t291.5 -115q173 0 288.5 115t115.5 289t-115.5 289t-288.5 115q-175 0 -291.5 -115t-116.5 -289z" />
<glyph unicode="R" horiz-adv-x="1397" d="M141 0v1536h683q134 0 242.5 -65.5t168.5 -176t60 -242.5q0 -156 -82.5 -276.5t-216.5 -166.5l425 -609h-441l-358 563h-90v-563h-391zM532 878h228q69 0 114 45t45 114t-45 114t-114 45h-228v-318z" />
<glyph unicode="S" horiz-adv-x="1246" d="M33 333l320 199q41 -87 118.5 -136.5t176.5 -49.5q73 0 112 29t39 76q0 37 -24 65.5t-64.5 48t-93 37t-110.5 36.5t-115.5 42t-110 58.5t-93 81t-64.5 114.5t-24 154q0 95 30 174t80 132.5t117 90.5t138.5 54t146.5 17q143 0 273 -60.5t221 -166.5l-256 -249 q-125 133 -243 133q-49 0 -81 -24.5t-32 -72.5q0 -37 24 -65t64 -47t92.5 -35.5t110 -36t115 -43.5t110 -62.5t92.5 -88t64 -124.5t24 -169q0 -142 -76 -249.5t-199 -161.5t-272 -54q-203 0 -366.5 99.5t-243.5 253.5z" />
<glyph unicode="T" horiz-adv-x="1095" d="M-23 1196v340h1142v-340h-377v-1196h-389v1196h-376z" />
<glyph unicode="U" horiz-adv-x="1582" d="M133 489v1047h392v-973q0 -102 77.5 -172.5t188.5 -70.5t188.5 70.5t77.5 172.5v973h392v-1047q0 -141 -87 -258t-238 -184t-333 -67t-333 67t-238 184t-87 258z" />
<glyph unicode="V" horiz-adv-x="1459" d="M-46 1536h440l336 -1021l335 1021h438l-556 -1536h-438z" />
<glyph unicode="W" horiz-adv-x="2117" d="M-41 1536h415l235 -1011l272 1011h355l272 -1011l238 1011h415l-402 -1536h-459l-240 978l-243 -978h-459z" />
<glyph unicode="X" horiz-adv-x="1402" d="M-44 0l536 796l-500 740h446l263 -415l264 415h446l-500 -740l535 -796h-445l-300 474l-299 -474h-446z" />
<glyph unicode="Y" horiz-adv-x="1382" d="M-44 1536h436l302 -481l302 481h430l-538 -812v-724h-391v722z" />
<glyph unicode="Z" horiz-adv-x="1297" d="M49 0l599 1196h-538v340h1129l-591 -1196h581v-340h-1180z" />
<glyph unicode="[" horiz-adv-x="903" d="M141 -512v2294h594v-195h-267v-1902h267v-197h-594z" />
<glyph unicode="\" horiz-adv-x="1448" d="M-41 1713h351l1180 -2327h-353z" />
<glyph unicode="]" horiz-adv-x="903" d="M169 -315h264v1902h-264v195h594v-2294h-594v197z" />
<glyph unicode="^" horiz-adv-x="1584" d="M54 404l571 1132h332l571 -1132h-312l-425 845l-425 -845h-312z" />
<glyph unicode="_" horiz-adv-x="1377" d="M74 0h1229v-243h-1229v243z" />
<glyph unicode="`" horiz-adv-x="220" d="M28 1536h346l225 -384h-248z" />
<glyph unicode="a" horiz-adv-x="1262" d="M113 274q0 138 85.5 221.5t229.5 83.5h337v76q0 52 -37.5 82.5t-100.5 30.5q-60 0 -96.5 -25t-36.5 -67h-381q0 169 139 268.5t375 99.5q238 0 377.5 -117t139.5 -315v-172q0 -62 13.5 -97.5t38.5 -35.5h48v-307q-55 -20 -107 -20q-186 0 -287 133q-60 -62 -152.5 -97.5 t-198.5 -35.5q-177 0 -281.5 80t-104.5 214zM492 292q0 -31 31.5 -49t85.5 -18q65 0 106.5 36.5t49.5 99.5h-199q-35 0 -54.5 -18t-19.5 -51z" />
<glyph unicode="b" horiz-adv-x="1354" d="M141 0v1713l379 -3v-760q110 94 268 94q136 0 249.5 -70t179.5 -192.5t66 -269.5t-66 -269.5t-179.5 -192.5t-249.5 -70q-158 0 -268 94v-77zM499 512q0 -86 58.5 -144t143.5 -58q86 0 144.5 58t58.5 144t-58.5 144t-144.5 58q-85 0 -143.5 -58t-58.5 -144z" />
<glyph unicode="c" horiz-adv-x="1287" d="M69 512q0 236 158.5 384t425.5 148q242 0 396.5 -125t179.5 -330h-387q-21 56 -71.5 89.5t-117.5 35.5q-90 -2 -147.5 -59t-57.5 -143t57.5 -143t147.5 -59q67 2 117.5 35.5t71.5 89.5h387q-25 -205 -179.5 -330t-396.5 -125q-267 0 -425.5 148t-158.5 384z" />
<glyph unicode="d" horiz-adv-x="1354" d="M69 512q0 225 144 378.5t353 153.5q156 0 266 -94v760l379 3v-1713l-379 -3v77q-110 -94 -266 -94q-209 0 -353 153.5t-144 378.5zM448 512q0 -86 59 -144t146 -58q83 0 142.5 58.5t59.5 143.5t-59.5 143.5t-142.5 58.5q-87 0 -146 -58t-59 -144z" />
<glyph unicode="e" horiz-adv-x="1310" d="M69 512q0 245 162.5 390t426.5 145t420 -143t158 -389l-2 -64h-763q6 -104 50.5 -154.5t144.5 -50.5q78 0 126.5 27t62.5 78h364q-35 -171 -178.5 -271t-372.5 -100q-272 0 -435.5 143.5t-163.5 388.5zM486 660h359q-44 108 -179 108q-139 0 -180 -108z" />
<glyph unicode="f" horiz-adv-x="793" d="M13 742v282h171v271q0 175 128.5 296.5t307.5 121.5q56 0 105 -10t69 -24v-294h-126q-48 0 -75 -35.5t-27 -97.5v-228h233v-282h-233v-742h-382v742h-171z" />
<glyph unicode="g" horiz-adv-x="1387" d="M67 -294l350 135q55 -133 213 -133q116 0 177 73.5t61 213.5v82q-110 -97 -272 -97q-209 0 -351.5 153.5t-142.5 378.5t142.5 378.5t351.5 153.5q157 0 267 -94v74h381l3 -1009q0 -305 -159 -467t-458 -162q-426 0 -563 320zM481 512q0 -86 58.5 -144t144.5 -58 q85 0 143.5 58t58.5 144t-58.5 144t-143.5 58q-86 0 -144.5 -58t-58.5 -144z" />
<glyph unicode="h" horiz-adv-x="1308" d="M141 0v1713h379v-837q57 80 136 124t173 44q155 0 259.5 -113t104.5 -283v-648h-379v576q0 57 -38 97.5t-98 40.5q-67 0 -112.5 -49.5t-45.5 -111.5v-553h-379z" />
<glyph unicode="i" horiz-adv-x="663" d="M128 1393q0 82 59.5 140.5t142.5 58.5t142.5 -58.5t59.5 -140.5q0 -83 -60 -143t-142 -60t-142 60t-60 143zM141 0v1024h379v-1024h-379z" />
<glyph unicode="j" horiz-adv-x="663" d="M-90 -287h126q48 0 76.5 36t28.5 97v1178h379v-1224q0 -173 -128.5 -293.5t-307.5 -120.5q-54 0 -103 9.5t-71 23.5v294zM128 1393q0 82 60 140.5t145 58.5q81 0 140 -58.5t59 -140.5q0 -83 -59 -143t-140 -60q-84 0 -144.5 60t-60.5 143z" />
<glyph unicode="k" horiz-adv-x="1287" d="M156 0v1713h379v-1027l320 338h448l-440 -466l473 -558h-486l-315 428v-428h-379z" />
<glyph unicode="l" horiz-adv-x="660" d="M141 0v1713h379v-1713h-379z" />
<glyph unicode="m" horiz-adv-x="1896" d="M141 0v1024h379v-136q113 156 294 156q103 0 178.5 -50.5t115.5 -138.5q49 91 134 140t199 49q168 0 254.5 -105t86.5 -291v-648h-379v576q0 58 -36 98t-95 40q-62 0 -91 -43t-29 -95v-576h-381v576q0 58 -34.5 98t-93.5 40q-62 0 -92.5 -43.5t-30.5 -94.5v-576h-379z " />
<glyph unicode="n" horiz-adv-x="1308" d="M141 0v1024h379v-148q59 80 143.5 124t186.5 44q154 0 248.5 -103t94.5 -273v-668h-379v573q0 62 -39 101.5t-102 39.5q-64 0 -108.5 -40t-44.5 -101v-573h-379z" />
<glyph unicode="o" horiz-adv-x="1303" d="M69 512q0 236 158.5 384t425.5 148q265 0 423 -148t158 -384t-158 -384t-423 -148q-267 0 -425.5 148t-158.5 384zM448 512q0 -88 57 -144t148 -58q89 2 145.5 58t56.5 144t-56.5 144t-145.5 58q-91 -2 -148 -58t-57 -144z" />
<glyph unicode="p" horiz-adv-x="1354" d="M141 -614v1638l379 -3v-71q110 94 268 94q136 0 249.5 -70t179.5 -192.5t66 -269.5t-66 -269.5t-179.5 -192.5t-249.5 -70q-158 0 -268 94v-691zM499 512q0 -86 58.5 -144t143.5 -58q86 0 144.5 58t58.5 144t-58.5 144t-144.5 58q-85 0 -143.5 -58t-58.5 -144z" />
<glyph unicode="q" horiz-adv-x="1354" d="M69 512q0 225 144 378.5t353 153.5q156 0 266 -94v74h379v-1178q0 -61 28.5 -97t76.5 -36h97v-307q-72 -20 -146 -20q-179 0 -307 120.5t-128 293.5v274q-110 -94 -266 -94q-209 0 -353 153.5t-144 378.5zM448 512q0 -86 59 -144t146 -58q83 0 142.5 58.5t59.5 143.5 t-59.5 143.5t-142.5 58.5q-87 0 -146 -58t-59 -144z" />
<glyph unicode="r" horiz-adv-x="865" d="M141 0v1024h379v-143q49 78 118.5 120.5t152.5 42.5q53 0 87 -12v-318h-102q-117 0 -186.5 -62.5t-69.5 -180.5v-471h-379z" />
<glyph unicode="s" horiz-adv-x="942" d="M38 230l267 139q62 -100 161 -100q69 0 69 41q0 19 -23 37t-82 40q-7 3 -40 15t-51.5 19.5t-53 24t-56 32t-48.5 40t-43 50.5t-27 61.5t-11 74.5q0 65 27.5 125.5t77.5 108.5t128.5 77t173.5 29q206 0 358 -125l-166 -218q-79 72 -164 72q-64 0 -64 -38q0 -8 4 -14.5 t18.5 -14.5t24 -12t38.5 -16q54 -22 92 -39.5t86 -49.5t77.5 -66.5t50.5 -86.5t21 -113q0 -151 -104 -247t-285 -96q-150 0 -279 65t-177 185z" />
<glyph unicode="t" horiz-adv-x="842" d="M18 742v282h171v376h379v-376h236v-282h-236v-302q0 -61 28.5 -97t76.5 -36h126v-294q-20 -14 -69.5 -23.5t-104.5 -9.5q-179 0 -307.5 120.5t-128.5 293.5v348h-171z" />
<glyph unicode="u" horiz-adv-x="1269" d="M120 402v622h382v-573q0 -59 37.5 -100t92.5 -41q58 0 97 41t39 100v573h379v-622q0 -198 -132.5 -310t-382.5 -112q-248 0 -380 112.5t-132 309.5z" />
<glyph unicode="v" horiz-adv-x="1134" d="M-23 1024h404l185 -612l184 612h407l-415 -1024h-355z" />
<glyph unicode="w" horiz-adv-x="1784" d="M-23 1024h430l146 -625l197 625h287l199 -630l146 630h425l-350 -1024h-397l-167 504l-166 -504h-397z" />
<glyph unicode="x" horiz-adv-x="1277" d="M-23 0l435 512l-435 512h451l209 -246l210 246h453l-435 -515l435 -509h-455l-205 243l-207 -243h-456z" />
<glyph unicode="y" horiz-adv-x="1198" d="M-23 1024h392l233 -625l230 625h387l-492 -1224l-161 -414h-400l241 588z" />
<glyph unicode="z" horiz-adv-x="985" d="M44 0l381 719h-323v305h863l-386 -719h363v-305h-898z" />
<glyph unicode="{" horiz-adv-x="806" d="M95 394v213q32 13 42.5 17t32.5 15.5t28 19t19 24t15.5 33.5t8 44.5t6.5 60.5t1 78v483q0 145 82 247t202 102h169v-208q-21 0 -51 1t-41.5 1t-29 -2.5t-23.5 -8.5t-13.5 -18.5t-9 -31.5t-1.5 -48v-548q0 -242 -97 -366q97 -127 97 -369v-563q0 -32 3.5 -46.5t23 -24.5 t49.5 -12t93 -2v-209h-169q-121 0 -202.5 99.5t-81.5 245.5v481q0 59 -2 98t-10.5 69.5t-16.5 46.5t-29.5 31.5t-39 23.5t-55.5 23z" />
<glyph unicode="|" horiz-adv-x="683" d="M225 -307v1843h231v-1843h-231z" />
<glyph unicode="}" horiz-adv-x="806" d="M105 -515q62 0 91.5 2t48.5 12t22.5 24.5t3.5 46.5v563q0 238 100 369q-100 128 -100 366v548q0 29 -1.5 48t-8.5 31.5t-12.5 18.5t-23 8.5t-29 2.5t-41 -1t-50.5 -1v208h166q122 0 203.5 -101.5t81.5 -247.5v-483q0 -114 15 -168.5t38.5 -73.5t90.5 -46q6 -3 9 -4v-213 q-38 -15 -55 -22.5t-39 -23.5t-29.5 -32.5t-16.5 -46.5t-11 -69t-2 -98v-481q0 -147 -81.5 -246t-203.5 -99h-166v209z" />
<glyph unicode="~" horiz-adv-x="1210" d="M64 305q-10 195 89.5 313.5t286.5 118.5q94 0 154 -33t115 -110q33 -51 77 -51q45 0 76.5 47t25.5 127h254q21 -181 -74.5 -303t-258.5 -122q-61 0 -118.5 21.5t-86.5 43t-67.5 56.5t-42.5 38q-31 28 -61 28q-57 0 -82 -51t-28 -123h-259z" />
<glyph unicode="&#xa1;" horiz-adv-x="757" d="M177 824q0 83 59 141.5t143 58.5t143 -58.5t59 -141.5q0 -86 -58.5 -145t-143.5 -59t-143.5 59t-58.5 145zM189 -614l49 1077h282l48 -1077h-379z" />
<glyph unicode="&#xa2;" horiz-adv-x="995" d="M87 717q0 177 108.5 314.5t283.5 189.5v215h212v-187q81 -4 169 -20v-359q-66 49 -192 49q-86 0 -144 -58.5t-58 -143.5t58 -143.5t144 -58.5q129 0 192 51v-361q-96 -17 -169 -21v-187h-212v215q-174 52 -283 190t-109 315z" />
<glyph unicode="&#xa3;" horiz-adv-x="1374" d="M67 622v238h163v156q0 236 149 388t379 152q122 0 233.5 -55.5t188.5 -155.5t97 -221l-273 -118q11 109 -65.5 189t-180.5 80q-113 0 -179.5 -70t-66.5 -189v-156h381v-238h-381v-361h778v-261h-1060v622h-163z" />
<glyph unicode="&#xa4;" horiz-adv-x="1420" d="M143 376l110 113q-67 118 -66.5 254.5t66.5 254.5l-110 110l197 205l116 -115q118 66 254.5 66.5t254.5 -66.5l115 115l200 -202l-113 -110q65 -119 65 -257.5t-65 -257.5l110 -110l-197 -204l-115 115q-117 -65 -255 -65t-257 65l-115 -115zM469 741q0 -101 69 -170 q73 -71 173.5 -71t171.5 71q70 72 70.5 172.5t-70.5 170.5q-71 71 -171.5 71t-171.5 -71q-71 -72 -71 -173z" />
<glyph unicode="&#xa5;" horiz-adv-x="1510" d="M74 1536h351l330 -527l333 527h346l-479 -724h292v-236h-325v-125h325v-215h-325v-236h-331v236h-327v215h327v125h-327v236h289z" />
<glyph unicode="&#xa6;" horiz-adv-x="683" d="M225 -307v737h231v-737h-231zM225 799v737h231v-737h-231z" />
<glyph unicode="&#xa7;" horiz-adv-x="1372" d="M128 261l228 143q40 -64 134.5 -103.5t221.5 -39.5q113 0 189.5 30t76.5 80q0 36 -43.5 60t-113 38.5t-153.5 29t-168.5 38t-154 57.5t-113 95.5t-43.5 145.5q0 112 77 192q-77 69 -77 181q0 108 72.5 189t182 120t234.5 39q136 0 265.5 -45.5t208.5 -120.5l-184 -154 q-97 82 -272 82q-98 0 -165.5 -26.5t-67.5 -67.5q0 -36 43.5 -60.5t113 -39t153.5 -29t168.5 -38.5t154 -59t113 -99t43.5 -151q0 -97 -77 -187q77 -82 77 -195q0 -98 -76 -181.5t-204 -131.5t-276 -48q-181 0 -338.5 72t-229.5 184zM463 845q0 -29 26.5 -50t78.5 -35.5 t105.5 -25t131 -26t132.5 -30.5q41 34 41 70q0 29 -26.5 50t-78.5 35t-105.5 24t-131 24.5t-132.5 29.5q-41 -28 -41 -66z" />
<glyph unicode="&#xa8;" horiz-adv-x="294" d="M120 1367q0 69 50 117.5t119 48.5q68 0 117.5 -48.5t49.5 -117.5q0 -67 -49.5 -116.5t-117.5 -49.5q-69 0 -119 49t-50 117zM568 1367q0 69 49.5 117.5t117.5 48.5q69 0 119 -48.5t50 -117.5q0 -68 -50 -117t-119 -49q-68 0 -117.5 49.5t-49.5 116.5z" />
<glyph unicode="&#xa9;" d="M87 768q0 160 62.5 306t168.5 251.5t252 168t306 62.5t305.5 -62.5t251.5 -168t168.5 -251.5t62.5 -306t-62.5 -306t-168.5 -251.5t-251.5 -168t-305.5 -62.5t-306 62.5t-252 168t-168.5 251.5t-62.5 306zM282 768q0 -164 78 -300.5t214.5 -215t301.5 -78.5 q123 0 232.5 46.5t188 125.5t124.5 189t46 233t-46 233t-124.5 189t-188 125.5t-232.5 46.5q-165 0 -301.5 -78.5t-214.5 -215t-78 -300.5zM515 768q0 152 96 247.5t259 95.5q149 0 244 -80.5t110 -213.5h-236q-13 37 -44.5 58.5t-73.5 23.5q-55 -2 -90 -38.5t-35 -92.5 t35 -92.5t90 -38.5q42 2 73.5 23.5t44.5 58.5h236q-15 -133 -110 -213.5t-244 -80.5q-163 0 -259 95.5t-96 247.5z" />
<glyph unicode="&#xaa;" horiz-adv-x="816" d="M44 1229q0 134 87.5 227t214.5 93q125 0 204 -95v82h177v-614h-177v82q-79 -95 -204 -95q-127 0 -214.5 93t-87.5 227zM218 1229q0 -69 48.5 -118t117.5 -49t117.5 49t48.5 118t-48.5 117.5t-117.5 48.5t-117.5 -48.5t-48.5 -117.5z" />
<glyph unicode="&#xab;" horiz-adv-x="1574" d="M220 571l312 376h295l-312 -376l312 -376h-295zM748 571l312 376h294l-310 -376l310 -376h-294z" />
<glyph unicode="&#xac;" horiz-adv-x="1699" d="M177 707v233h1344v-758h-231v525h-1113z" />
<glyph unicode="&#xad;" horiz-adv-x="1246" d="M182 410v245h717v-245h-717z" />
<glyph unicode="&#xae;" d="M87 768q0 160 62.5 306t168.5 251.5t252 168t306 62.5t305.5 -62.5t251.5 -168t168.5 -251.5t62.5 -306t-62.5 -306t-168.5 -251.5t-251.5 -168t-305.5 -62.5t-306 62.5t-252 168t-168.5 251.5t-62.5 306zM282 768q0 -164 78 -300.5t214.5 -215t301.5 -78.5 q123 0 232.5 46.5t188 125.5t124.5 189t46 233t-46 233t-124.5 189t-188 125.5t-232.5 46.5q-165 0 -301.5 -78.5t-214.5 -215t-78 -300.5zM653 376v784h274q102 0 175 -71t73 -173q0 -66 -32.5 -120.5t-87.5 -88.5l181 -331h-202l-166 295h-39v-295h-176zM829 847h98 q27 0 46.5 20.5t19.5 48.5q0 27 -19 47t-47 20h-98v-136z" />
<glyph unicode="&#xaf;" horiz-adv-x="107" d="M51 1172v236h640v-236h-640z" />
<glyph unicode="&#xb0;" horiz-adv-x="985" d="M218 1283q0 115 79 194t195 79t196 -79t80 -194t-80 -194.5t-196 -79.5t-195 79.5t-79 194.5zM392 1283q0 -44 28.5 -72t71.5 -28q44 0 73 28t29 72q0 42 -29 70.5t-73 28.5q-42 0 -71 -28.5t-29 -70.5z" />
<glyph unicode="&#xb1;" horiz-adv-x="1630" d="M95 0v210h1441v-210h-1441zM95 730v235h604v369h233v-369h604v-235h-604v-369h-233v369h-604z" />
<glyph unicode="&#xb2;" horiz-adv-x="747" d="M79 806l287 382q51 72 64 96t13 45q0 39 -20.5 54t-46.5 15q-30 0 -48.5 -22.5t-12.5 -57.5h-174q-11 103 63 172t180 69q100 0 166.5 -61.5t66.5 -153.5q-2 -63 -26 -111t-97 -145l-95 -123h226v-159h-546z" />
<glyph unicode="&#xb3;" horiz-adv-x="760" d="M123 998l179 3q0 -21 20.5 -35t48.5 -14q36 0 58 23.5t22 58.5q0 36 -21 58t-54 22h-235l197 261h-215v158h517l-236 -294q98 0 160.5 -54t62.5 -156q0 -103 -73.5 -174.5t-182.5 -71.5q-102 0 -175 62.5t-73 152.5z" />
<glyph unicode="&#xb4;" horiz-adv-x="220" d="M95 1152l225 384h346l-323 -384h-248z" />
<glyph unicode="&#xb5;" horiz-adv-x="1297" d="M156 -512v1536h320v-589q0 -75 51 -125.5t126 -50.5q85 0 142 50.5t57 125.5v589h318v-1024h-318v110q-56 -62 -132 -96t-162 -34q-94 0 -169 38v-530h-233z" />
<glyph unicode="&#xb6;" horiz-adv-x="1382" d="M197 1193q0 166 97 254.5t269 88.5h205v-1843h-187v1157h-18q-171 0 -268.5 89t-97.5 254zM957 -307v1843h187v-1843h-187z" />
<glyph unicode="&#xb7;" horiz-adv-x="642" d="M177 737q0 58 42.5 101t100.5 43t102 -43t44 -101q0 -60 -43.5 -101.5t-102.5 -41.5t-101 41t-42 102z" />
<glyph unicode="&#xb8;" horiz-adv-x="112" d="M54 -366l158 51q11 -23 35.5 -38.5t49.5 -15.5q27 0 47 20.5t20 48.5q0 48 -42 59t-104 -23l-126 72l108 192h171l-71 -113q96 15 161.5 -39.5t65.5 -147.5q0 -98 -67 -165t-163 -67q-82 0 -152.5 48.5t-90.5 117.5z" />
<glyph unicode="&#xb9;" horiz-adv-x="552" d="M54 1382v154h279v-768h-177v614h-102z" />
<glyph unicode="&#xba;" horiz-adv-x="768" d="M44 1229q0 135 98 227.5t242 92.5q142 0 242.5 -93t100.5 -227t-100.5 -227t-242.5 -93q-144 0 -242 92.5t-98 227.5zM218 1229q0 -69 48.5 -118t117.5 -49t117.5 49t48.5 118t-48.5 117.5t-117.5 48.5t-117.5 -48.5t-48.5 -117.5z" />
<glyph unicode="&#xbb;" horiz-adv-x="1574" d="M218 195l312 376l-312 376h294l312 -376l-312 -376h-294zM745 195l312 376l-312 376h297l312 -376l-312 -376h-297z" />
<glyph unicode="&#xbc;" horiz-adv-x="2150" d="M54 1316v220h402v-1024h-251v804h-151zM297 -5l1070 1536h289l-1070 -1536h-289zM1247 215l412 809h320v-589h77v-220h-77v-215h-254v215h-478zM1551 435h174v361z" />
<glyph unicode="&#xbd;" horiz-adv-x="2076" d="M54 1316v220h402v-1024h-251v804h-151zM256 -5l1070 1536h289l-1070 -1536h-289zM1249 -5l395 530q71 96 89 129t18 65q0 53 -28 73t-64 20q-43 0 -68 -30t-14 -78h-243q-10 94 36.5 171t127 118t174.5 41q137 0 228.5 -84t91.5 -210q-2 -86 -36 -153.5t-133 -199.5 l-133 -172h314v-220h-755z" />
<glyph unicode="&#xbe;" horiz-adv-x="2196" d="M97 801l246 3q0 -28 29 -47.5t68 -19.5q50 0 79 31.5t29 81.5t-28.5 80t-74.5 30h-325l272 361h-295v220h717l-328 -407q138 0 224 -75.5t86 -216.5t-102.5 -239.5t-253.5 -98.5q-142 0 -242.5 86.5t-100.5 210.5zM404 -5l1071 1536h289l-1070 -1536h-290zM1293 215 l412 809h320v-589h77v-220h-77v-215h-253v215h-479zM1597 435h175v361z" />
<glyph unicode="&#xbf;" horiz-adv-x="1384" d="M115 -10q0 90 20 157t52.5 105t71.5 65t78 43.5t71.5 32.5t52.5 40t20 59v79h336v-62q0 -92 -20.5 -155t-53.5 -94t-72.5 -50t-79 -32t-72.5 -31.5t-53.5 -57t-20.5 -99.5q0 -68 61.5 -118.5t143.5 -50.5q110 0 169 77t31 186h333q20 -161 -43.5 -297t-193.5 -215 t-296 -79q-109 0 -208.5 39.5t-171 106t-113.5 158.5t-42 193zM440 868q0 84 59 142t144 58q83 0 141 -58t58 -142q0 -86 -58 -144t-141 -58q-85 0 -144 58t-59 144z" />
<glyph unicode="&#xc0;" horiz-adv-x="1459" d="M-46 0l555 1536h438l556 -1536h-420l-85 269h-537l-85 -269h-422zM307 2048h346l225 -384h-248zM561 586h340l-171 543z" />
<glyph unicode="&#xc1;" horiz-adv-x="1459" d="M-46 0l555 1536h438l556 -1536h-420l-85 269h-537l-85 -269h-422zM561 586h340l-171 543zM586 1664l226 384h345l-322 -384h-249z" />
<glyph unicode="&#xc2;" horiz-adv-x="1459" d="M-46 0l555 1536h438l556 -1536h-420l-85 269h-537l-85 -269h-422zM361 1664l269 384h205l271 -384h-230l-144 179l-141 -179h-230zM561 586h340l-171 543z" />
<glyph unicode="&#xc3;" horiz-adv-x="1459" d="M-46 0l555 1536h438l556 -1536h-420l-85 269h-537l-85 -269h-422zM348 1661q0 154 68 248.5t186 94.5q137 0 217 -125q15 -23 33 -23q47 0 47 131h215q0 -151 -66 -246t-190 -95q-128 0 -215 123q-11 15 -17.5 20.5t-16.5 5.5q-46 0 -46 -134h-215zM561 586h340l-171 543 z" />
<glyph unicode="&#xc4;" horiz-adv-x="1459" d="M-46 0l555 1536h438l556 -1536h-420l-85 269h-537l-85 -269h-422zM340 1879q0 69 50 117.5t119 48.5q68 0 117.5 -48.5t49.5 -117.5q0 -67 -49.5 -116.5t-117.5 -49.5q-69 0 -119 49t-50 117zM561 586h340l-171 543zM788 1879q0 69 49.5 117.5t117.5 48.5q69 0 119 -48.5 t50 -117.5q0 -68 -50 -117t-119 -49q-68 0 -117.5 49.5t-49.5 116.5z" />
<glyph unicode="&#xc5;" horiz-adv-x="1459" d="M-46 0l555 1536h11q-28 56 -28 118q0 104 77 180t184 76t182.5 -76t75.5 -180q0 -88 -51 -156l543 -1498h-420l-85 269h-537l-85 -269h-422zM561 586h340l-171 543zM643 1654q0 -53 30.5 -84t79.5 -31t80.5 31t31.5 84q0 45 -32.5 78.5t-79.5 33.5t-78.5 -33.5 t-31.5 -78.5z" />
<glyph unicode="&#xc6;" horiz-adv-x="1991" d="M-46 0l617 1536h1334v-330h-569v-295h482v-286h-482v-295h569v-330h-948v307h-450l-115 -307h-438zM614 599h343v607h-117z" />
<glyph unicode="&#xc7;" horiz-adv-x="1638" d="M87 768q0 160 62 306t167.5 251.5t252 168t307.5 62.5q225 0 413 -117.5t288 -312.5l-338 -171q-51 101 -146.5 159t-216.5 58q-175 0 -291.5 -115t-116.5 -289t116.5 -289t291.5 -115q121 0 216.5 58t146.5 159l338 -171q-91 -178 -257 -292.5t-368 -135.5l-61 -95 q96 15 162 -39.5t66 -147.5q0 -98 -67.5 -165t-163.5 -67q-82 0 -152.5 48.5t-90.5 117.5l159 51q11 -23 35 -38.5t49 -15.5q27 0 47 20.5t20 48.5q0 48 -42.5 59t-103.5 -23l-125 72l99 177q-195 23 -354 132t-250.5 280.5t-91.5 370.5z" />
<glyph unicode="&#xc8;" horiz-adv-x="1192" d="M154 0v1536h952v-340h-561v-259h474v-338h-474v-259h561v-340h-952zM205 2048h345l226 -384h-249z" />
<glyph unicode="&#xc9;" horiz-adv-x="1192" d="M154 0v1536h952v-340h-561v-259h474v-338h-474v-259h561v-340h-952zM484 1664l225 384h346l-323 -384h-248z" />
<glyph unicode="&#xca;" horiz-adv-x="1192" d="M154 0v1536h952v-340h-561v-259h474v-338h-474v-259h561v-340h-952zM259 1664l268 384h205l272 -384h-231l-143 179l-141 -179h-230z" />
<glyph unicode="&#xcb;" horiz-adv-x="1192" d="M154 0v1536h952v-340h-561v-259h474v-338h-474v-259h561v-340h-952zM238 1879q0 69 50 117.5t119 48.5q68 0 117 -48.5t49 -117.5q0 -67 -49.5 -116.5t-116.5 -49.5q-69 0 -119 49t-50 117zM686 1879q0 69 49 117.5t117 48.5q69 0 119 -48.5t50 -117.5q0 -68 -50 -117 t-119 -49q-68 0 -117 49.5t-49 116.5z" />
<glyph unicode="&#xcc;" horiz-adv-x="696" d="M-77 2048h346l225 -384h-248zM154 0v1536h391v-1536h-391z" />
<glyph unicode="&#xcd;" horiz-adv-x="696" d="M154 0v1536h391v-1536h-391zM202 1664l226 384h345l-322 -384h-249z" />
<glyph unicode="&#xce;" horiz-adv-x="696" d="M-23 1664l269 384h205l271 -384h-230l-144 179l-141 -179h-230zM154 0v1536h391v-1536h-391z" />
<glyph unicode="&#xcf;" horiz-adv-x="696" d="M-44 1879q0 69 50 117.5t119 48.5q68 0 117.5 -48.5t49.5 -117.5q0 -67 -49.5 -116.5t-117.5 -49.5q-69 0 -119 49t-50 117zM154 0v1536h391v-1536h-391zM404 1879q0 69 49.5 117.5t117.5 48.5q69 0 119 -48.5t50 -117.5q0 -68 -50 -117t-119 -49q-68 0 -117.5 49.5 t-49.5 116.5z" />
<glyph unicode="&#xd0;" horiz-adv-x="1528" d="M0 678v180h141v678h532q156 0 298 -60.5t245 -163.5t164 -245.5t61 -298.5t-61 -298.5t-164 -245.5t-245 -163.5t-298 -60.5h-532v678h-141zM532 340h141q159 0 269 124t110 304t-110 304t-269 124h-141v-338h221v-180h-221v-338z" />
<glyph unicode="&#xd1;" horiz-adv-x="1776" d="M141 0v1536h409l694 -940v940h392v-1536h-412l-692 942v-942h-391zM512 1661q0 154 68 248.5t185 94.5q71 0 126.5 -34.5t91.5 -90.5q15 -23 33 -23q27 0 36.5 33.5t9.5 97.5h215q0 -151 -66 -246t-190 -95q-128 0 -215 123q-8 12 -11.5 15.5t-9 7t-12.5 3.5 q-46 0 -46 -134h-215z" />
<glyph unicode="&#xd2;" d="M87 768q0 160 62 306t167.5 251.5t252 168t307.5 62.5q160 0 306 -62.5t251.5 -168t168 -251.5t62.5 -306t-62.5 -306t-168 -251.5t-251.5 -168t-306 -62.5q-161 0 -307.5 62.5t-252 168t-167.5 251.5t-62 306zM451 2048h345l225 -384h-248zM468 768q0 -174 116.5 -289 t291.5 -115q173 0 288.5 115t115.5 289t-115.5 289t-288.5 115q-175 0 -291.5 -115t-116.5 -289z" />
<glyph unicode="&#xd3;" d="M87 768q0 160 62 306t167.5 251.5t252 168t307.5 62.5q160 0 306 -62.5t251.5 -168t168 -251.5t62.5 -306t-62.5 -306t-168 -251.5t-251.5 -168t-306 -62.5q-161 0 -307.5 62.5t-252 168t-167.5 251.5t-62 306zM468 768q0 -174 116.5 -289t291.5 -115q173 0 288.5 115 t115.5 289t-115.5 289t-288.5 115q-175 0 -291.5 -115t-116.5 -289zM730 1664l225 384h345l-322 -384h-248z" />
<glyph unicode="&#xd4;" d="M87 768q0 160 62 306t167.5 251.5t252 168t307.5 62.5q160 0 306 -62.5t251.5 -168t168 -251.5t62.5 -306t-62.5 -306t-168 -251.5t-251.5 -168t-306 -62.5q-161 0 -307.5 62.5t-252 168t-167.5 251.5t-62 306zM468 768q0 -174 116.5 -289t291.5 -115q173 0 288.5 115 t115.5 289t-115.5 289t-288.5 115q-175 0 -291.5 -115t-116.5 -289zM504 1664l269 384h205l271 -384h-230l-143 179l-141 -179h-231z" />
<glyph unicode="&#xd5;" d="M87 768q0 160 62 306t167.5 251.5t252 168t307.5 62.5q160 0 306 -62.5t251.5 -168t168 -251.5t62.5 -306t-62.5 -306t-168 -251.5t-251.5 -168t-306 -62.5q-161 0 -307.5 62.5t-252 168t-167.5 251.5t-62 306zM468 768q0 -174 116.5 -289t291.5 -115q173 0 288.5 115 t115.5 289t-115.5 289t-288.5 115q-175 0 -291.5 -115t-116.5 -289zM492 1661q0 154 68 248.5t185 94.5q71 0 126.5 -34.5t91.5 -90.5q15 -23 33 -23q27 0 36.5 33.5t9.5 97.5h215q0 -151 -66 -246t-190 -95q-128 0 -215 123q-8 12 -11.5 15.5t-9 7t-12.5 3.5 q-46 0 -46 -134h-215z" />
<glyph unicode="&#xd6;" d="M87 768q0 160 62 306t167.5 251.5t252 168t307.5 62.5q160 0 306 -62.5t251.5 -168t168 -251.5t62.5 -306t-62.5 -306t-168 -251.5t-251.5 -168t-306 -62.5q-161 0 -307.5 62.5t-252 168t-167.5 251.5t-62 306zM468 768q0 -174 116.5 -289t291.5 -115q173 0 288.5 115 t115.5 289t-115.5 289t-288.5 115q-175 0 -291.5 -115t-116.5 -289zM484 1879q0 69 50 117.5t119 48.5q68 0 117 -48.5t49 -117.5q0 -67 -49.5 -116.5t-116.5 -49.5q-69 0 -119 49t-50 117zM932 1879q0 69 49 117.5t117 48.5q69 0 119 -48.5t50 -117.5q0 -68 -50 -117 t-119 -49q-68 0 -117 49.5t-49 116.5z" />
<glyph unicode="&#xd7;" horiz-adv-x="1594" d="M279 284l351 351l-351 351l197 197l351 -351l351 351l199 -197l-350 -351l350 -351l-199 -197l-351 351l-351 -351z" />
<glyph unicode="&#xd8;" d="M87 768q0 160 62 306t167.5 251.5t252 168t307.5 62.5q181 0 335 -74l130 187l226 -133l-141 -202q112 -109 175 -256.5t63 -309.5q0 -160 -62.5 -306t-168 -251.5t-251.5 -168t-306 -62.5q-174 0 -338 74l-131 -187l-228 133l144 205q-111 109 -173.5 255t-62.5 308z M468 768q0 -138 77 -243l441 635q-50 12 -110 12q-175 0 -291.5 -115t-116.5 -289zM763 379q54 -15 113 -15q173 0 288.5 115t115.5 289q0 138 -77 243z" />
<glyph unicode="&#xd9;" horiz-adv-x="1582" d="M133 489v1047h392v-973q0 -102 77.5 -172.5t188.5 -70.5t188.5 70.5t77.5 172.5v973h392v-1047q0 -141 -87 -258t-238 -184t-333 -67t-333 67t-238 184t-87 258zM366 2048h346l225 -384h-248z" />
<glyph unicode="&#xda;" horiz-adv-x="1582" d="M133 489v1047h392v-973q0 -102 77.5 -172.5t188.5 -70.5t188.5 70.5t77.5 172.5v973h392v-1047q0 -141 -87 -258t-238 -184t-333 -67t-333 67t-238 184t-87 258zM645 1664l225 384h346l-323 -384h-248z" />
<glyph unicode="&#xdb;" horiz-adv-x="1582" d="M133 489v1047h392v-973q0 -102 77.5 -172.5t188.5 -70.5t188.5 70.5t77.5 172.5v973h392v-1047q0 -141 -87 -258t-238 -184t-333 -67t-333 67t-238 184t-87 258zM420 1664l269 384h204l272 -384h-231l-143 179l-141 -179h-230z" />
<glyph unicode="&#xdc;" horiz-adv-x="1582" d="M133 489v1047h392v-973q0 -102 77.5 -172.5t188.5 -70.5t188.5 70.5t77.5 172.5v973h392v-1047q0 -141 -87 -258t-238 -184t-333 -67t-333 67t-238 184t-87 258zM399 1879q0 69 50 117.5t119 48.5q68 0 117.5 -48.5t49.5 -117.5q0 -67 -49.5 -116.5t-117.5 -49.5 q-69 0 -119 49t-50 117zM847 1879q0 69 49.5 117.5t117.5 48.5q69 0 119 -48.5t50 -117.5q0 -68 -50 -117t-119 -49q-68 0 -117.5 49.5t-49.5 116.5z" />
<glyph unicode="&#xdd;" horiz-adv-x="1382" d="M-44 1536h436l302 -481l302 481h430l-538 -812v-724h-391v722zM548 1664l225 384h346l-323 -384h-248z" />
<glyph unicode="&#xde;" horiz-adv-x="1336" d="M156 0v1536h379v-228h300q129 0 235.5 -63t168 -173.5t61.5 -242.5q0 -190 -134.5 -321.5t-330.5 -131.5h-300v-376h-379zM535 709h287q55 0 95 39.5t40 93.5q0 57 -39.5 95t-95.5 38h-287v-266z" />
<glyph unicode="&#xdf;" horiz-adv-x="1472" d="M156 0v1034q0 142 76 257.5t208.5 180t294.5 64.5q233 0 384 -127.5t151 -320.5q0 -158 -100 -274q89 -71 138 -168t49 -211q0 -125 -55 -228t-154.5 -160t-220.5 -47h-228v328h153q49 2 87.5 40t38.5 93q0 70 -54.5 119.5t-132.5 49.5h-59v307h23q63 0 111 44t48 102 q0 54 -49.5 88.5t-124.5 34.5q-89 0 -147 -48.5t-58 -123.5v-1034h-379z" />
<glyph unicode="&#xe0;" horiz-adv-x="1262" d="M113 274q0 138 85.5 221.5t229.5 83.5h337v76q0 52 -37.5 82.5t-100.5 30.5q-60 0 -96.5 -25t-36.5 -67h-381q0 169 139 268.5t375 99.5q238 0 377.5 -117t139.5 -315v-172q0 -62 13.5 -97.5t38.5 -35.5h48v-307q-55 -20 -107 -20q-186 0 -287 133q-60 -62 -152.5 -97.5 t-198.5 -35.5q-177 0 -281.5 80t-104.5 214zM205 1536h345l226 -384h-249zM492 292q0 -31 31.5 -49t85.5 -18q65 0 106.5 36.5t49.5 99.5h-199q-35 0 -54.5 -18t-19.5 -51z" />
<glyph unicode="&#xe1;" horiz-adv-x="1262" d="M113 274q0 138 85.5 221.5t229.5 83.5h337v76q0 52 -37.5 82.5t-100.5 30.5q-60 0 -96.5 -25t-36.5 -67h-381q0 169 139 268.5t375 99.5q238 0 377.5 -117t139.5 -315v-172q0 -62 13.5 -97.5t38.5 -35.5h48v-307q-55 -20 -107 -20q-186 0 -287 133q-60 -62 -152.5 -97.5 t-198.5 -35.5q-177 0 -281.5 80t-104.5 214zM484 1152l225 384h346l-323 -384h-248zM492 292q0 -31 31.5 -49t85.5 -18q65 0 106.5 36.5t49.5 99.5h-199q-35 0 -54.5 -18t-19.5 -51z" />
<glyph unicode="&#xe2;" horiz-adv-x="1262" d="M113 274q0 138 85.5 221.5t229.5 83.5h337v76q0 52 -37.5 82.5t-100.5 30.5q-60 0 -96.5 -25t-36.5 -67h-381q0 169 139 268.5t375 99.5q238 0 377.5 -117t139.5 -315v-172q0 -62 13.5 -97.5t38.5 -35.5h48v-307q-55 -20 -107 -20q-186 0 -287 133q-60 -62 -152.5 -97.5 t-198.5 -35.5q-177 0 -281.5 80t-104.5 214zM259 1152l268 384h205l272 -384h-231l-143 179l-141 -179h-230zM492 292q0 -31 31.5 -49t85.5 -18q65 0 106.5 36.5t49.5 99.5h-199q-35 0 -54.5 -18t-19.5 -51z" />
<glyph unicode="&#xe3;" horiz-adv-x="1262" d="M113 274q0 138 85.5 221.5t229.5 83.5h337v76q0 52 -37.5 82.5t-100.5 30.5q-60 0 -96.5 -25t-36.5 -67h-381q0 169 139 268.5t375 99.5q238 0 377.5 -117t139.5 -315v-172q0 -62 13.5 -97.5t38.5 -35.5h48v-307q-55 -20 -107 -20q-186 0 -287 133q-60 -62 -152.5 -97.5 t-198.5 -35.5q-177 0 -281.5 80t-104.5 214zM246 1149q0 154 68 248.5t185 94.5q71 0 126.5 -34.5t91.5 -90.5q15 -23 33 -23q27 0 36.5 33.5t9.5 97.5h215q0 -151 -66 -246t-190 -95q-128 0 -215 123q-8 12 -11.5 15.5t-9 7t-12.5 3.5q-46 0 -46 -134h-215zM492 292 q0 -31 31.5 -49t85.5 -18q65 0 106.5 36.5t49.5 99.5h-199q-35 0 -54.5 -18t-19.5 -51z" />
<glyph unicode="&#xe4;" horiz-adv-x="1262" d="M113 274q0 138 85.5 221.5t229.5 83.5h337v76q0 52 -37.5 82.5t-100.5 30.5q-60 0 -96.5 -25t-36.5 -67h-381q0 169 139 268.5t375 99.5q238 0 377.5 -117t139.5 -315v-172q0 -62 13.5 -97.5t38.5 -35.5h48v-307q-55 -20 -107 -20q-186 0 -287 133q-60 -62 -152.5 -97.5 t-198.5 -35.5q-177 0 -281.5 80t-104.5 214zM238 1367q0 69 50 117.5t119 48.5q68 0 117 -48.5t49 -117.5q0 -67 -49.5 -116.5t-116.5 -49.5q-69 0 -119 49t-50 117zM492 292q0 -31 31.5 -49t85.5 -18q65 0 106.5 36.5t49.5 99.5h-199q-35 0 -54.5 -18t-19.5 -51zM686 1367 q0 69 49 117.5t117 48.5q69 0 119 -48.5t50 -117.5q0 -68 -50 -117t-119 -49q-68 0 -117 49.5t-49 116.5z" />
<glyph unicode="&#xe5;" horiz-adv-x="1262" d="M113 274q0 138 85.5 221.5t229.5 83.5h337v76q0 52 -37.5 82.5t-100.5 30.5q-60 0 -96.5 -25t-36.5 -67h-381q0 169 139 268.5t375 99.5q238 0 377.5 -117t139.5 -315v-172q0 -62 13.5 -97.5t38.5 -35.5h48v-307q-55 -20 -107 -20q-186 0 -287 133q-60 -62 -152.5 -97.5 t-198.5 -35.5q-177 0 -281.5 80t-104.5 214zM369 1364q0 104 77 180t184 76t182.5 -76t75.5 -180q0 -109 -75.5 -186t-182.5 -77q-108 0 -184.5 77t-76.5 186zM492 292q0 -31 31.5 -49t85.5 -18q65 0 106.5 36.5t49.5 99.5h-199q-35 0 -54.5 -18t-19.5 -51zM520 1364 q0 -53 30.5 -84t79.5 -31t80.5 31t31.5 84q0 45 -32.5 79t-79.5 34t-78.5 -34t-31.5 -79z" />
<glyph unicode="&#xe6;" horiz-adv-x="2007" d="M113 287q0 149 101.5 232t277.5 83h268v53q0 111 -133 116q-65 6 -104.5 -17t-41.5 -65l-320 87q37 128 160 198t309 70q224 0 356 -97q152 100 368 100q264 0 420.5 -143t158.5 -389l-3 -64h-763q6 -104 50.5 -154.5t144.5 -50.5q78 0 126.5 27t62.5 78h364 q-35 -171 -178.5 -271t-372.5 -100q-287 0 -450 158q-158 -158 -420 -158q-186 0 -283.5 81t-97.5 226zM507 307q0 -36 26.5 -53.5t70.5 -17.5q61 0 112 31.5t70 85.5l-4.5 18t-5.5 23h-174q-39 0 -67 -24.5t-28 -62.5zM1183 660h358q-44 108 -179 108q-74 0 -116.5 -27 t-62.5 -81z" />
<glyph unicode="&#xe7;" horiz-adv-x="1287" d="M69 512q0 236 158.5 384t425.5 148q242 0 396.5 -125t179.5 -330h-387q-21 56 -71.5 89.5t-117.5 35.5q-90 -2 -147.5 -59t-57.5 -143t57.5 -143t147.5 -59q67 2 117.5 35.5t71.5 89.5h387q-25 -199 -172.5 -323.5t-378.5 -131.5l-61 -95q96 15 162 -39.5t66 -147.5 q0 -98 -67.5 -165.5t-163.5 -67.5q-82 0 -152.5 48.5t-90.5 117.5l159 52q11 -23 35 -38.5t49 -15.5q27 0 47 20.5t20 48.5q0 48 -42.5 59t-103.5 -23l-125 71l105 187q-208 37 -327 177t-119 343z" />
<glyph unicode="&#xe8;" horiz-adv-x="1310" d="M69 512q0 245 162.5 390t426.5 145t420 -143t158 -389l-2 -64h-763q6 -104 50.5 -154.5t144.5 -50.5q78 0 126.5 27t62.5 78h364q-35 -171 -178.5 -271t-372.5 -100q-272 0 -435.5 143.5t-163.5 388.5zM246 1536h345l226 -384h-249zM486 660h359q-44 108 -179 108 q-139 0 -180 -108z" />
<glyph unicode="&#xe9;" horiz-adv-x="1310" d="M69 512q0 245 162.5 390t426.5 145t420 -143t158 -389l-2 -64h-763q6 -104 50.5 -154.5t144.5 -50.5q78 0 126.5 27t62.5 78h364q-35 -171 -178.5 -271t-372.5 -100q-272 0 -435.5 143.5t-163.5 388.5zM486 660h359q-44 108 -179 108q-139 0 -180 -108zM525 1152l225 384 h346l-323 -384h-248z" />
<glyph unicode="&#xea;" horiz-adv-x="1310" d="M69 512q0 245 162.5 390t426.5 145t420 -143t158 -389l-2 -64h-763q6 -104 50.5 -154.5t144.5 -50.5q78 0 126.5 27t62.5 78h364q-35 -171 -178.5 -271t-372.5 -100q-272 0 -435.5 143.5t-163.5 388.5zM300 1152l268 384h205l271 -384h-230l-143 179l-141 -179h-230z M486 660h359q-44 108 -179 108q-139 0 -180 -108z" />
<glyph unicode="&#xeb;" horiz-adv-x="1310" d="M69 512q0 245 162.5 390t426.5 145t420 -143t158 -389l-2 -64h-763q6 -104 50.5 -154.5t144.5 -50.5q78 0 126.5 27t62.5 78h364q-35 -171 -178.5 -271t-372.5 -100q-272 0 -435.5 143.5t-163.5 388.5zM279 1367q0 69 50 117.5t119 48.5q68 0 117 -48.5t49 -117.5 q0 -67 -49 -116.5t-117 -49.5q-69 0 -119 49t-50 117zM486 660h359q-44 108 -179 108q-139 0 -180 -108zM727 1367q0 69 49 117.5t117 48.5q69 0 119 -48.5t50 -117.5q0 -68 -50 -117t-119 -49q-67 0 -116.5 49.5t-49.5 116.5z" />
<glyph unicode="&#xec;" horiz-adv-x="686" d="M-82 1536h346l225 -384h-248zM154 0v1024h378v-1024h-378z" />
<glyph unicode="&#xed;" horiz-adv-x="686" d="M154 0v1024h378v-1024h-378zM197 1152l225 384h346l-323 -384h-248z" />
<glyph unicode="&#xee;" horiz-adv-x="686" d="M-28 1152l269 384h204l272 -384h-231l-143 179l-141 -179h-230zM154 0v1024h378v-1024h-378z" />
<glyph unicode="&#xef;" horiz-adv-x="686" d="M-49 1367q0 69 50 117.5t119 48.5q68 0 117.5 -48.5t49.5 -117.5q0 -67 -49.5 -116.5t-117.5 -49.5q-69 0 -119 49t-50 117zM154 0v1024h378v-1024h-378zM399 1367q0 69 49.5 117.5t117.5 48.5q69 0 119 -48.5t50 -117.5q0 -68 -50 -117t-119 -49q-68 0 -117.5 49.5 t-49.5 116.5z" />
<glyph unicode="&#xf0;" horiz-adv-x="1285" d="M69 512q0 148 77 270t210.5 192t293.5 70q55 0 98 -7q-60 116 -144 184l-87 -110l-169 125l67 88q-113 31 -215 23l79 297q188 0 341 -64l104 135l167 -125l-87 -110q200 -144 313.5 -393.5t113.5 -574.5q0 -148 -76.5 -270t-209.5 -192t-295 -70q-160 0 -293.5 70 t-210.5 192t-77 270zM448 512q0 -86 58.5 -144t143.5 -58t143.5 58t58.5 144t-58.5 144t-143.5 58t-143.5 -58t-58.5 -144z" />
<glyph unicode="&#xf1;" horiz-adv-x="1308" d="M141 0v1024h379v-148q59 80 143.5 124t186.5 44q154 0 248.5 -103t94.5 -273v-668h-379v573q0 62 -39 101.5t-102 39.5q-64 0 -108.5 -40t-44.5 -101v-573h-379zM289 1149q0 154 68 248.5t186 94.5q137 0 217 -125q15 -23 34 -23q27 0 36.5 33.5t9.5 97.5h215 q0 -151 -66 -246t-190 -95q-128 0 -215 123q-11 15 -17.5 20.5t-16.5 5.5q-46 0 -46 -134h-215z" />
<glyph unicode="&#xf2;" horiz-adv-x="1303" d="M69 512q0 236 158.5 384t425.5 148q265 0 423 -148t158 -384t-158 -384t-423 -148q-267 0 -425.5 148t-158.5 384zM228 1536h345l226 -384h-249zM448 512q0 -88 57 -144t148 -58q89 2 145.5 58t56.5 144t-56.5 144t-145.5 58q-91 -2 -148 -58t-57 -144z" />
<glyph unicode="&#xf3;" horiz-adv-x="1303" d="M69 512q0 236 158.5 384t425.5 148q265 0 423 -148t158 -384t-158 -384t-423 -148q-267 0 -425.5 148t-158.5 384zM448 512q0 -88 57 -144t148 -58q89 2 145.5 58t56.5 144t-56.5 144t-145.5 58q-91 -2 -148 -58t-57 -144zM507 1152l225 384h346l-323 -384h-248z" />
<glyph unicode="&#xf4;" horiz-adv-x="1303" d="M69 512q0 236 158.5 384t425.5 148q265 0 423 -148t158 -384t-158 -384t-423 -148q-267 0 -425.5 148t-158.5 384zM282 1152l268 384h205l272 -384h-231l-143 179l-141 -179h-230zM448 512q0 -88 57 -144t148 -58q89 2 145.5 58t56.5 144t-56.5 144t-145.5 58 q-91 -2 -148 -58t-57 -144z" />
<glyph unicode="&#xf5;" horiz-adv-x="1303" d="M69 512q0 236 158.5 384t425.5 148q265 0 423 -148t158 -384t-158 -384t-423 -148q-267 0 -425.5 148t-158.5 384zM269 1149q0 154 68 248.5t185 94.5q71 0 126.5 -34.5t91.5 -90.5q15 -23 33 -23q27 0 36.5 33.5t9.5 97.5h215q0 -151 -66 -246t-190 -95q-128 0 -215 123 q-8 12 -11.5 15.5t-9 7t-12.5 3.5q-46 0 -46 -134h-215zM448 512q0 -88 57 -144t148 -58q89 2 145.5 58t56.5 144t-56.5 144t-145.5 58q-91 -2 -148 -58t-57 -144z" />
<glyph unicode="&#xf6;" horiz-adv-x="1303" d="M69 512q0 236 158.5 384t425.5 148q265 0 423 -148t158 -384t-158 -384t-423 -148q-267 0 -425.5 148t-158.5 384zM261 1367q0 69 50 117.5t119 48.5q68 0 117 -48.5t49 -117.5q0 -67 -49 -116.5t-117 -49.5q-69 0 -119 49t-50 117zM448 512q0 -88 57 -144t148 -58 q89 2 145.5 58t56.5 144t-56.5 144t-145.5 58q-91 -2 -148 -58t-57 -144zM709 1367q0 69 49.5 117.5t117.5 48.5q69 0 118.5 -48.5t49.5 -117.5q0 -68 -49.5 -117t-118.5 -49q-68 0 -117.5 49.5t-49.5 116.5z" />
<glyph unicode="&#xf7;" horiz-adv-x="1459" d="M115 471v184h1229v-184h-1229zM553 128q0 71 53 125t124 54t125 -54t54 -125q0 -74 -53.5 -125.5t-125.5 -51.5t-124.5 51.5t-52.5 125.5zM553 998q0 70 53 123.5t124 53.5t125 -54t54 -123q0 -75 -53.5 -127t-125.5 -52t-124.5 52t-52.5 127z" />
<glyph unicode="&#xf8;" horiz-adv-x="1303" d="M69 512q0 236 158.5 384t425.5 148q137 0 238 -38l74 105l151 -87l-72 -102q190 -147 190 -410q0 -236 -158 -384t-423 -148q-131 0 -236 35l-74 -105l-151 90l69 100q-93 72 -142.5 178t-49.5 234zM448 512q0 -57 28 -105l210 305q-5 0 -15.5 1t-17.5 1q-91 -2 -148 -58 t-57 -144zM622 312q7 -2 31 -2q89 2 145.5 58t56.5 144q0 60 -26 100z" />
<glyph unicode="&#xf9;" horiz-adv-x="1269" d="M120 402v622h382v-573q0 -59 37.5 -100t92.5 -41q58 0 97 41t39 100v573h379v-622q0 -198 -132.5 -310t-382.5 -112q-248 0 -380 112.5t-132 309.5zM218 1536h345l225 -384h-248z" />
<glyph unicode="&#xfa;" horiz-adv-x="1269" d="M120 402v622h382v-573q0 -59 37.5 -100t92.5 -41q58 0 97 41t39 100v573h379v-622q0 -198 -132.5 -310t-382.5 -112q-248 0 -380 112.5t-132 309.5zM497 1152l225 384h346l-323 -384h-248z" />
<glyph unicode="&#xfb;" horiz-adv-x="1269" d="M120 402v622h382v-573q0 -59 37.5 -100t92.5 -41q58 0 97 41t39 100v573h379v-622q0 -198 -132.5 -310t-382.5 -112q-248 0 -380 112.5t-132 309.5zM271 1152l269 384h205l271 -384h-230l-143 179l-141 -179h-231z" />
<glyph unicode="&#xfc;" horiz-adv-x="1269" d="M120 402v622h382v-573q0 -59 37.5 -100t92.5 -41q58 0 97 41t39 100v573h379v-622q0 -198 -132.5 -310t-382.5 -112q-248 0 -380 112.5t-132 309.5zM251 1367q0 69 50 117.5t119 48.5q68 0 117 -48.5t49 -117.5q0 -67 -49 -116.5t-117 -49.5q-69 0 -119 49t-50 117z M699 1367q0 69 49 117.5t117 48.5q69 0 119 -48.5t50 -117.5q0 -68 -50 -117t-119 -49q-67 0 -116.5 49.5t-49.5 116.5z" />
<glyph unicode="&#xfd;" horiz-adv-x="1198" d="M-23 1024h392l233 -625l230 625h387l-492 -1224l-161 -414h-400l241 588zM451 1152l225 384h345l-322 -384h-248z" />
<glyph unicode="&#xfe;" horiz-adv-x="1364" d="M156 -614v2142h379v-576q108 92 264 92q139 0 252.5 -70t177.5 -192t64 -270t-64 -270t-177.5 -192t-252.5 -70q-156 0 -264 92v-686h-379zM535 512q0 -86 57.5 -144t142.5 -58q87 0 146 58t59 144t-59 144t-146 58q-85 0 -142.5 -58t-57.5 -144z" />
<glyph unicode="&#xff;" horiz-adv-x="1198" d="M-23 1024h392l233 -625l230 625h387l-492 -1224l-161 -414h-400l241 588zM205 1367q0 69 50 117.5t119 48.5q68 0 117 -48.5t49 -117.5q0 -67 -49 -116.5t-117 -49.5q-69 0 -119 49t-50 117zM653 1367q0 69 49 117.5t117 48.5q69 0 119 -48.5t50 -117.5q0 -68 -50 -117 t-119 -49q-67 0 -116.5 49.5t-49.5 116.5z" />
<glyph unicode="&#x152;" horiz-adv-x="2104" d="M87 768q0 160 62 306t167.5 251.5t252 168t307.5 62.5q134 0 256 -40v20h883v-330h-525v-272h438v-332h-438v-272h525v-330h-883v20q-122 -40 -256 -40q-161 0 -307.5 62.5t-252 168t-167.5 251.5t-62 306zM466 768q0 -172 119 -291t291 -119q145 0 256 90v640 q-111 90 -256 90q-172 0 -291 -119t-119 -291z" />
<glyph unicode="&#x153;" horiz-adv-x="2101" d="M69 512q0 236 158.5 384t425.5 148q236 0 394 -122q152 125 402 125q264 0 420.5 -143t158.5 -389l-3 -64h-763q6 -104 50.5 -154.5t144.5 -50.5q78 0 126.5 27t62.5 78h364q-35 -171 -178.5 -271t-372.5 -100q-250 0 -412 122q-154 -122 -394 -122q-267 0 -425.5 148 t-158.5 384zM448 512q0 -88 57 -144t148 -58q89 2 145.5 58t56.5 144t-56.5 144t-145.5 58q-91 -2 -148 -58t-57 -144zM1277 660h359q-44 108 -179 108q-139 0 -180 -108z" />
<glyph unicode="&#x178;" horiz-adv-x="1382" d="M-44 1536h436l302 -481l302 481h430l-538 -812v-724h-391v722zM302 1879q0 69 50 117.5t119 48.5q68 0 117 -48.5t49 -117.5q0 -67 -49.5 -116.5t-116.5 -49.5q-69 0 -119 49t-50 117zM750 1879q0 69 49 117.5t117 48.5q69 0 119 -48.5t50 -117.5q0 -68 -50 -117 t-119 -49q-68 0 -117 49.5t-49 116.5z" />
<glyph unicode="&#x2c6;" horiz-adv-x="261" d="M108 1152l268 384h205l271 -384h-230l-143 179l-141 -179h-230z" />
<glyph unicode="&#x2dc;" horiz-adv-x="117" d="M23 1211q0 154 68 248.5t185 94.5q71 0 126.5 -35t91.5 -91q15 -23 33 -23q27 0 36.5 33.5t9.5 97.5h215q0 -151 -66 -245.5t-190 -94.5q-128 0 -215 122q-8 12 -11.5 15.5t-9 7t-12.5 3.5q-46 0 -46 -133h-215z" />
<glyph unicode="&#x2000;" horiz-adv-x="1024" />
<glyph unicode="&#x2001;" horiz-adv-x="2048" />
<glyph unicode="&#x2002;" horiz-adv-x="1024" />
<glyph unicode="&#x2003;" horiz-adv-x="2048" />
<glyph unicode="&#x2004;" horiz-adv-x="682" />
<glyph unicode="&#x2005;" horiz-adv-x="512" />
<glyph unicode="&#x2006;" horiz-adv-x="341" />
<glyph unicode="&#x2007;" horiz-adv-x="341" />
<glyph unicode="&#x2008;" horiz-adv-x="256" />
<glyph unicode="&#x2009;" horiz-adv-x="409" />
<glyph unicode="&#x200a;" horiz-adv-x="113" />
<glyph unicode="&#x2010;" horiz-adv-x="1082" d="M182 410v245h717v-245h-717z" />
<glyph unicode="&#x2011;" horiz-adv-x="1082" d="M182 410v245h717v-245h-717z" />
<glyph unicode="&#x2012;" horiz-adv-x="1082" d="M182 410v245h717v-245h-717z" />
<glyph unicode="&#x2013;" horiz-adv-x="1390" d="M182 410v245h1024v-245h-1024z" />
<glyph unicode="&#x2014;" horiz-adv-x="2048" d="M0 410v245h2048v-245h-2048z" />
<glyph unicode="&#x2018;" horiz-adv-x="604" d="M87 937l289 619h185l-177 -619h-297z" />
<glyph unicode="&#x2019;" horiz-adv-x="529" d="M105 957l177 620h297l-290 -620h-184z" />
<glyph unicode="&#x201a;" horiz-adv-x="632" d="M102 -399l177 619h297l-289 -619h-185z" />
<glyph unicode="&#x201c;" horiz-adv-x="1162" d="M133 937l289 619h185l-177 -619h-297zM591 937l290 619h184l-177 -619h-297z" />
<glyph unicode="&#x201d;" horiz-adv-x="1095" d="M69 1108l177 620h297l-290 -620h-184zM527 1108l177 620h297l-289 -620h-185z" />
<glyph unicode="&#x201e;" horiz-adv-x="1134" d="M102 -399l177 619h297l-289 -619h-185zM591 -399l177 619h297l-289 -619h-185z" />
<glyph unicode="&#x2022;" horiz-adv-x="1315" d="M218 686q0 178 131 309t309 131q177 0 307.5 -131t130.5 -309q0 -120 -60 -221.5t-160.5 -159t-217.5 -57.5q-180 0 -310 127.5t-130 310.5z" />
<glyph unicode="&#x2026;" horiz-adv-x="2229" d="M182 179q0 82 59 141t140 59q83 0 143 -59t60 -141q0 -81 -60 -140t-143 -59q-81 0 -140 59t-59 140zM914 179q0 82 59.5 141t140.5 59q83 0 142.5 -59t59.5 -141q0 -81 -60 -140t-142 -59q-81 0 -140.5 59t-59.5 140zM1641 179q0 82 59.5 141t140.5 59q83 0 142.5 -59 t59.5 -141q0 -81 -60 -140t-142 -59q-81 0 -140.5 59t-59.5 140z" />
<glyph unicode="&#x202f;" horiz-adv-x="409" />
<glyph unicode="&#x2039;" horiz-adv-x="839" d="M97 571l313 376h294l-312 -376l312 -376h-294z" />
<glyph unicode="&#x203a;" horiz-adv-x="839" d="M136 195l312 376l-312 376h294l312 -376l-312 -376h-294z" />
<glyph unicode="&#x205f;" horiz-adv-x="512" />
<glyph unicode="&#x20ac;" horiz-adv-x="1477" d="M23 532v164h120q-2 15 -2 72t2 74h-120v164h154q73 245 279.5 397.5t472.5 152.5q163 0 346 -89l-97 -318q-55 36 -122 56.5t-127 20.5q-124 0 -227.5 -59t-166.5 -161h597l-47 -164h-609q-5 -38 -5 -74q0 -34 5 -72h566l-51 -164h-456q60 -102 164.5 -162t229.5 -60 q77 0 167.5 35.5t147.5 89.5v-379q-158 -76 -315 -76q-268 0 -473.5 152.5t-281.5 399.5h-151z" />
<glyph unicode="&#x2122;" horiz-adv-x="1722" d="M74 1385v151h528v-151h-180v-563h-171v563h-177zM753 822v714h189l215 -325l220 325h185v-714h-172v443l-233 -341l-230 341v-443h-174z" />
<glyph unicode="&#x25fc;" horiz-adv-x="1024" d="M0 0v1024h1024v-1024h-1024z" />
</font>
</defs>
</svg>
