<?xml version="1.0" standalone="no"?>
<!DOCTYPE svg PUBLIC "-//W3C//DTD SVG 1.1//EN" "http://www.w3.org/Graphics/SVG/1.1/DTD/svg11.dtd" >
<svg xmlns="http://www.w3.org/2000/svg" xmlns:xlink="http://www.w3.org/1999/xlink" version="1.1">
<metadata></metadata>
<defs>
<font id="now_altregular" horiz-adv-x="1221" >
<font-face units-per-em="2048" ascent="1638" descent="-410" />
<missing-glyph horiz-adv-x="616" />
<glyph unicode="&#xfb01;" horiz-adv-x="1277" d="M74 870v154h172v571q0 120 87 204.5t207 84.5q85 0 136 -33v-123l-118 3q-64 0 -109 -44t-45 -113v-550h274v-154h-274v-870h-158v870h-172zM881 1324q0 47 33 78.5t79 31.5q45 0 77.5 -31.5t32.5 -78.5q0 -44 -33 -76t-77 -32q-46 0 -79 32t-33 76zM914 0v1024h159 v-1024h-159z" />
<glyph unicode="&#xfb02;" horiz-adv-x="1239" d="M74 870v154h172v571q0 120 87 204.5t207 84.5q85 0 136 -33v-123l-118 3q-64 0 -109 -44t-45 -113v-550h274v-154h-274v-870h-158v870h-172zM893 0v1884h159v-1884h-159z" />
<glyph horiz-adv-x="0" />
<glyph horiz-adv-x="682" />
<glyph unicode=" "  horiz-adv-x="616" />
<glyph unicode="&#x09;" horiz-adv-x="616" />
<glyph unicode="&#xa0;" horiz-adv-x="616" />
<glyph unicode="!" horiz-adv-x="624" d="M202 90q0 45 32.5 77.5t77.5 32.5t77.5 -32.5t32.5 -77.5q0 -44 -33 -77t-77 -33t-77 33t-33 77zM233 1720h159l-18 -1282h-126z" />
<glyph unicode="&#x22;" horiz-adv-x="890" d="M202 1556h151l-18 -683h-117zM538 1556h153l-18 -683h-117z" />
<glyph unicode="#" horiz-adv-x="1615" d="M154 361l15 120h289l72 484h-292l21 118h284l53 361h116l-49 -361h392l51 361h118l-52 -361h290l-18 -118h-287l-69 -484h287l-16 -120h-286l-57 -361h-115l51 361h-394l-49 -361h-120l51 361h-286zM579 481h389l71 484h-394z" />
<glyph unicode="$" horiz-adv-x="1121" d="M74 292l149 87q42 -109 134 -172.5t219 -63.5q134 0 220.5 68.5t86.5 187.5q0 61 -25.5 109.5t-69 82.5t-99.5 62.5t-118 54t-123.5 52.5t-117.5 62.5t-99.5 79t-69 107.5t-25.5 143q0 168 104 276t264 126v164h156v-169q97 -19 178 -68t135 -117l-128 -107 q-46 65 -117.5 100.5t-159.5 35.5q-114 0 -191 -59t-77 -169q0 -58 25.5 -105t69 -79t99.5 -59.5t118 -53t123.5 -52.5t117.5 -64t99.5 -83t69 -114t25.5 -151q0 -173 -108 -284t-279 -135v-162h-156v162q-147 15 -261.5 97t-168.5 210z" />
<glyph unicode="%" horiz-adv-x="1533" d="M131 1236q0 133 80.5 226.5t195.5 93.5q113 0 193.5 -93.5t80.5 -226.5q0 -130 -80.5 -222t-193.5 -92q-115 0 -195.5 91.5t-80.5 222.5zM156 0l1055 1536h166l-1054 -1536h-167zM256 1236q0 -80 44.5 -136t106.5 -56q60 0 105.5 56t45.5 136q0 81 -45.5 139.5 t-105.5 58.5q-62 0 -106.5 -58t-44.5 -140zM852 300q0 131 81 222.5t196 91.5t194.5 -91.5t79.5 -222.5q0 -133 -79.5 -226.5t-194.5 -93.5t-196 93.5t-81 226.5zM978 300q0 -82 44.5 -140t106.5 -58q60 0 104 58t44 140q0 80 -44 136t-104 56q-62 0 -106.5 -56t-44.5 -136z " />
<glyph unicode="&#x26;" horiz-adv-x="1390" d="M207 420q0 111 53.5 207.5t143.5 155.5q-86 63 -135 155.5t-49 200.5q0 172 116 284.5t284 112.5h363v-164h-335q-112 0 -189.5 -64t-77.5 -176q0 -120 85.5 -198.5t209.5 -78.5h312v259h159v-259h143v-156h-143v-264q0 -190 -128.5 -312.5t-332.5 -122.5 q-132 0 -241.5 54t-173.5 150.5t-64 215.5zM356 425q0 -124 95.5 -204t232.5 -80q138 0 221 82.5t83 211.5v264h-345q-120 0 -203.5 -79.5t-83.5 -194.5z" />
<glyph unicode="'" horiz-adv-x="552" d="M202 1556h151l-18 -601h-117z" />
<glyph unicode="(" horiz-adv-x="770" d="M161 640q0 256 27 462t75 347t116.5 238t147.5 143.5t172 53.5v-115q-87 -12 -157 -79.5t-125 -198.5t-85 -347t-30 -504q0 -285 30 -499t85 -343.5t125 -197t157 -79.5v-115q-93 7 -172 53t-147.5 141.5t-116.5 235.5t-75 344.5t-27 459.5z" />
<glyph unicode=")" horiz-adv-x="770" d="M72 -479q69 10 127 53t108.5 129.5t85.5 212.5t55 310.5t20 413.5q0 288 -30 504t-85 347t-124.5 198.5t-156.5 79.5v115q93 -7 172 -53.5t147 -143.5t116 -238t75 -347t27 -462q0 -255 -27 -459.5t-75 -344.5t-116 -235.5t-147 -141.5t-172 -53v115z" />
<glyph unicode="*" horiz-adv-x="721" d="M120 1239v95l187 -18l-107 153l82 49l79 -166l79 166l82 -49l-107 -153l187 18v-95l-187 18l107 -154l-82 -48l-79 166l-79 -166l-82 48l107 154z" />
<glyph unicode="+" horiz-adv-x="1674" d="M202 561v148h563v561h146v-561h561v-148h-561v-561h-146v561h-563z" />
<glyph unicode="," horiz-adv-x="430" d="M13 -317l269 576h179l-315 -576h-133z" />
<glyph unicode="-" horiz-adv-x="924" d="M102 456v153h717v-153h-717z" />
<glyph unicode="." horiz-adv-x="488" d="M102 120q0 57 42.5 99t98.5 42q58 0 99.5 -41.5t41.5 -99.5t-41.5 -99t-99.5 -41q-56 0 -98.5 41.5t-42.5 98.5z" />
<glyph unicode="/" horiz-adv-x="1392" d="M-38 -614l1315 2498h154l-1316 -2498h-153z" />
<glyph unicode="0" horiz-adv-x="1425" d="M161 768q0 228 62.5 404.5t188.5 280t300 103.5t300.5 -103.5t189.5 -280t63 -404.5t-63 -404.5t-189.5 -280t-300.5 -103.5t-300 103.5t-188.5 280t-62.5 404.5zM328 768q0 -185 41.5 -324t130 -220t214.5 -81q125 0 213.5 81t131 220t42.5 324t-42.5 324t-131 220 t-213.5 81q-126 0 -214.5 -81t-130 -220t-41.5 -324z" />
<glyph unicode="1" horiz-adv-x="785" d="M100 1372v164h420v-1536h-164v1372h-256z" />
<glyph unicode="2" horiz-adv-x="1256" d="M36 0l642 704q147 164 192.5 242.5t45.5 161.5q0 136 -80 210.5t-204 76.5q-126 2 -208.5 -78t-80.5 -214h-179q-2 202 135.5 330t340.5 126q191 -2 319 -117t134 -305q4 -89 -23.5 -164.5t-87.5 -156t-186 -220.5l-389 -432h735v-164h-1106z" />
<glyph unicode="3" horiz-adv-x="1256" d="M141 425l171 3q0 -120 89 -203.5t213 -83.5q130 0 221.5 92t91.5 223q0 127 -89 206.5t-221 79.5h-369l489 633h-596v161h916l-491 -630h41q134 0 245.5 -59t176 -164t64.5 -235q0 -195 -139 -331.5t-340 -136.5q-196 0 -334.5 130.5t-138.5 314.5z" />
<glyph unicode="4" horiz-adv-x="1272" d="M64 323l704 1213h202v-1050h162v-163h-162v-323h-164v323h-742zM317 486h489v861z" />
<glyph unicode="5" horiz-adv-x="1287" d="M108 177l20 194h15q57 -82 137.5 -135t157 -73t156.5 -20q180 0 283 100.5t103 253.5q0 156 -103.5 255.5t-256.5 99.5q-86 0 -162.5 -32t-132.5 -90l-143 84l87 717h786v-164h-640l-57 -443q123 92 295 92q212 0 351.5 -146.5t139.5 -367.5q0 -228 -149.5 -375 t-395.5 -147q-144 0 -278.5 53t-212.5 144z" />
<glyph unicode="6" horiz-adv-x="1356" d="M143 481q-11 195 131 371l543 684h204l-450 -538q58 23 128 23q88 1 177 -33.5t163 -96.5t123 -157t54 -204q6 -143 -61 -266t-187 -197.5t-264 -81.5q-224 -11 -387.5 134.5t-173.5 361.5zM305 484q10 -158 121.5 -254.5t274.5 -86.5t263.5 119t90.5 265 q-10 163 -123 264.5t-274 91.5q-163 -10 -263 -122.5t-90 -276.5z" />
<glyph unicode="7" horiz-adv-x="1192" d="M105 1372v164h1021v-108l-801 -1428h-192l786 1372h-814z" />
<glyph unicode="8" horiz-adv-x="1200" d="M113 443q0 136 72.5 246t195.5 166q-84 51 -132.5 134.5t-48.5 185.5q0 161 115.5 271t286.5 110t285 -109.5t114 -271.5q0 -103 -48 -187.5t-131 -132.5q123 -56 196 -166t73 -246q0 -195 -141.5 -329t-350.5 -134q-205 0 -345.5 134t-140.5 329zM276 453 q0 -135 94.5 -231.5t228.5 -96.5q136 0 230.5 96.5t94.5 231.5q0 137 -94 231t-231 94q-135 0 -229 -94.5t-94 -230.5zM351 1149q0 -103 72.5 -174t178.5 -71q104 0 176 71t72 174q0 106 -72 178.5t-176 72.5q-106 0 -178.5 -72.5t-72.5 -178.5z" />
<glyph unicode="9" horiz-adv-x="1356" d="M143 1006q-6 143 61 266t187 197.5t264 81.5q146 7 272.5 -57t204 -181t84.5 -258q7 -201 -133 -371l-540 -684h-208l451 535q-66 -20 -126 -20q-71 -1 -143 20.5t-137.5 64.5t-117 101.5t-83.5 137.5t-36 167zM302 1009q10 -164 123 -265t276 -91q161 10 261 123t90 276 q-10 158 -121.5 254.5t-272.5 86.5q-164 -10 -265 -119t-91 -265z" />
<glyph unicode=":" horiz-adv-x="637" d="M207 90q0 44 33 77t77 33q46 0 79.5 -33t33.5 -77q0 -45 -33.5 -77.5t-79.5 -32.5q-45 0 -77.5 32.5t-32.5 77.5zM207 934q0 44 33 77t77 33q46 0 79.5 -33t33.5 -77q0 -45 -33.5 -77.5t-79.5 -32.5q-45 0 -77.5 32.5t-32.5 77.5z" />
<glyph unicode=";" horiz-adv-x="688" d="M59 -317l269 576h179l-315 -576h-133zM243 934q0 45 32.5 77.5t77.5 32.5q44 0 77 -33t33 -77q0 -45 -32.5 -77.5t-77.5 -32.5q-46 0 -78 32t-32 78z" />
<glyph unicode="&#x3c;" horiz-adv-x="1533" d="M202 625v146l1129 565v-135l-998 -505l998 -504v-138z" />
<glyph unicode="=" horiz-adv-x="1510" d="M141 294v110h1229v-110h-1229zM141 681v110h1229v-110h-1229z" />
<glyph unicode="&#x3e;" horiz-adv-x="1533" d="M202 54v138l999 504l-999 505v135l1129 -565v-146z" />
<glyph unicode="?" horiz-adv-x="1228" d="M207 1334q4 179 128 296.5t310 117.5q192 0 316 -118t124 -299q0 -81 -20 -142.5t-52.5 -98.5t-71.5 -66t-78 -51t-71.5 -46t-52.5 -60t-20 -84v-355h-146v337q0 76 20.5 131.5t53.5 87t72.5 55.5t79 46.5t72.5 50.5t53.5 77.5t20.5 117.5q0 121 -84 200t-216 79 q-123 0 -205.5 -78t-88.5 -198h-144zM543 90q0 44 33 77t79 33q44 0 77 -33t33 -77q0 -45 -32.5 -77.5t-77.5 -32.5q-46 0 -79 32t-33 78z" />
<glyph unicode="@" horiz-adv-x="1267" d="M141 566q0 153 70 281t191 202.5t266 74.5q168 0 284 -108.5t116 -265.5v-445h-105v76q-34 -43 -92 -71t-111 -28q-110 0 -185.5 74.5t-75.5 183.5q0 107 75.5 181.5t183.5 74.5q58 0 115 -28t90 -74v56q0 113 -86 192t-209 79q-177 0 -301 -132.5t-124 -322.5 q0 -195 140.5 -329.5t340.5 -134.5h344v-102h-344q-161 0 -295 75t-211 205t-77 286zM617 540q0 -71 51 -118.5t126 -47.5q60 0 105.5 32t63.5 83v102q-18 51 -63.5 83.5t-105.5 32.5q-75 0 -126 -48t-51 -119z" />
<glyph unicode="A" horiz-adv-x="1292" d="M0 0l556 1536h181l556 -1536h-179l-126 358h-683l-126 -358h-179zM358 515h576l-286 826z" />
<glyph unicode="B" horiz-adv-x="1338" d="M187 0v1536h558q179 0 302 -116t123 -294q0 -120 -60.5 -210.5t-164.5 -137.5q125 -42 199.5 -140t74.5 -234q0 -176 -121.5 -290t-298.5 -114h-612zM348 164h430q115 0 196 73.5t81 184.5q0 112 -81.5 189.5t-195.5 77.5h-430v-525zM348 847h379q116 0 197.5 77 t81.5 190q0 112 -81 185t-198 73h-379v-525z" />
<glyph unicode="C" horiz-adv-x="1684" d="M125 768q0 160 62.5 306t168.5 251.5t252 168t306 62.5q217 0 399.5 -108.5t286.5 -290.5l-141 -79q-80 144 -225.5 229.5t-319.5 85.5q-170 0 -314 -83t-227.5 -227t-83.5 -315t83.5 -315t227.5 -227t314 -83q174 0 319.5 85.5t225.5 229.5l141 -79 q-104 -182 -286.5 -290.5t-399.5 -108.5q-160 0 -306 62.5t-252 168t-168.5 251.5t-62.5 306z" />
<glyph unicode="D" horiz-adv-x="1500" d="M187 0v1536h420q156 0 298 -60.5t245 -163.5t164 -245.5t61 -298.5t-61 -298.5t-164 -245.5t-245 -163.5t-298 -60.5h-420zM348 164h256q168 0 307 78t219.5 217t80.5 309t-80.5 309t-219.5 217t-307 78h-256v-1208z" />
<glyph unicode="E" horiz-adv-x="1192" d="M200 0v1536h839v-159h-675v-530h588v-158h-588v-530h675v-159h-839z" />
<glyph unicode="F" horiz-adv-x="1085" d="M200 0v1536h839v-159h-675v-530h588v-158h-588v-689h-164z" />
<glyph unicode="G" horiz-adv-x="1840" d="M133 768q0 160 62 306t167.5 251.5t252 168t307.5 62.5q217 0 399.5 -108.5t283.5 -290.5l-141 -79q-80 144 -225 229.5t-317 85.5q-170 0 -314 -83t-227.5 -227t-83.5 -315t83.5 -315t227.5 -227t314 -83q231 0 404 146.5t210 370.5h-617v154h791v-46q0 -160 -62.5 -306 t-168 -251.5t-251.5 -168t-306 -62.5q-161 0 -307.5 62.5t-252 168t-167.5 251.5t-62 306z" />
<glyph unicode="H" horiz-adv-x="1548" d="M187 0v1536h164v-686h847v686h164v-1536h-164v686h-847v-686h-164z" />
<glyph unicode="I" horiz-adv-x="560" d="M200 0v1536h164v-1536h-164z" />
<glyph unicode="J" horiz-adv-x="1013" d="M84 317l167 36q10 -95 70.5 -152.5t149.5 -57.5q100 0 162.5 67t62.5 179v983h-540v164h704v-1165q0 -180 -106.5 -285.5t-282.5 -105.5q-162 0 -266 90t-121 247z" />
<glyph unicode="K" horiz-adv-x="1313" d="M187 0v1536h164v-630h107l617 630h228l-701 -709l729 -827h-228l-642 753h-110v-753h-164z" />
<glyph unicode="L" horiz-adv-x="944" d="M187 0v1536h164v-1372h571v-164h-735z" />
<glyph unicode="M" horiz-adv-x="1899" d="M187 0v1536h174l589 -1339l591 1339h172v-1536h-162v1208l-535 -1208h-135l-530 1213v-1213h-164z" />
<glyph unicode="N" horiz-adv-x="1638" d="M187 0v1536h153l950 -1262v1262h162v-1536h-154l-947 1262v-1262h-164z" />
<glyph unicode="O" horiz-adv-x="1830" d="M125 768q0 160 62.5 306t168.5 251.5t252 168t306 62.5q161 0 307.5 -62.5t251.5 -168t167 -251.5t62 -306t-62 -306t-167 -251.5t-251.5 -168t-307.5 -62.5q-160 0 -306 62.5t-252 168t-168.5 251.5t-62.5 306zM289 768q0 -171 83.5 -315t227.5 -227t314 -83 q128 0 244 49t199.5 132.5t132.5 199.5t49 244t-49 244t-132.5 199.5t-199.5 132.5t-244 49q-170 0 -314 -83t-227.5 -227t-83.5 -315z" />
<glyph unicode="P" horiz-adv-x="1208" d="M187 0v1536h550q178 0 303 -125.5t125 -302.5q0 -178 -124.5 -301t-303.5 -123h-386v-684h-164zM351 840h371q120 0 199.5 71.5t79.5 194.5q0 121 -80.5 196t-198.5 75h-371v-537z" />
<glyph unicode="Q" horiz-adv-x="1840" d="M125 768q0 160 62.5 306t168.5 251.5t252 168t306 62.5q161 0 307.5 -62.5t251.5 -168t167 -251.5t62 -306q0 -217 -107.5 -399.5t-288.5 -286.5l225 72h230v-154h-668q-86 -20 -179 -20q-160 0 -306 62.5t-252 168t-168.5 251.5t-62.5 306zM289 768q0 -171 83.5 -315 t227.5 -227t314 -83q128 0 244 49t199.5 132.5t132.5 199.5t49 244t-49 244t-132.5 199.5t-199.5 132.5t-244 49q-170 0 -314 -83t-227.5 -227t-83.5 -315z" />
<glyph unicode="R" horiz-adv-x="1285" d="M187 0v1536h550q178 0 303 -125t125 -305q0 -154 -102 -269t-254 -136l453 -701h-187l-435 694h-289v-694h-164zM351 850h376q118 0 196 72.5t78 188.5q0 114 -78.5 187.5t-195.5 73.5h-376v-522z" />
<glyph unicode="S" horiz-adv-x="1121" d="M74 292l149 87q42 -109 134 -172.5t219 -63.5q134 0 220.5 68.5t86.5 187.5q0 61 -25.5 109.5t-69 82.5t-99.5 62.5t-118 54t-123.5 52.5t-117.5 62.5t-99.5 79t-69 107.5t-25.5 143q0 183 122.5 293.5t304.5 110.5q127 0 235.5 -53.5t174.5 -138.5l-128 -107 q-46 65 -117.5 100.5t-159.5 35.5q-114 0 -191 -59t-77 -169q0 -58 25.5 -105t69 -79t99.5 -59.5t118 -53t123.5 -52.5t117.5 -64t99.5 -83t69 -114t25.5 -151q0 -131 -64.5 -228.5t-171 -146.5t-238.5 -49q-170 0 -304.5 85t-194.5 227z" />
<glyph unicode="T" horiz-adv-x="1059" d="M23 1372v164h1014v-164h-425v-1372h-164v1372h-425z" />
<glyph unicode="U" horiz-adv-x="1512" d="M179 504v1032h164v-1006q0 -167 117 -277t295 -110q179 0 297 110t118 277v1006h164v-1032q0 -149 -74.5 -269t-207 -187.5t-297.5 -67.5q-164 0 -296 67.5t-206 187.5t-74 269z" />
<glyph unicode="V" horiz-adv-x="1292" d="M0 1536h182l466 -1326l466 1326h179l-556 -1536h-181z" />
<glyph unicode="W" horiz-adv-x="2071" d="M-15 1536h174l391 -1260l369 1260h230l374 -1262l394 1262h169l-478 -1536h-172l-402 1362l-394 -1362h-174z" />
<glyph unicode="X" horiz-adv-x="1231" d="M3 0l522 778l-510 758h197l402 -622l405 622h197l-512 -758l525 -778h-200l-415 643l-412 -643h-199z" />
<glyph unicode="Y" horiz-adv-x="1241" d="M3 1536h204l415 -637l415 637h202l-535 -806v-730h-164v727z" />
<glyph unicode="Z" horiz-adv-x="1351" d="M95 0l842 1372h-781v164h1070l-839 -1372h870v-164h-1162z" />
<glyph unicode="[" horiz-adv-x="665" d="M187 -512v2396h404v-123h-263v-2150h263v-123h-404z" />
<glyph unicode="\" horiz-adv-x="1392" d="M-38 1884h153l1316 -2498h-154z" />
<glyph unicode="]" horiz-adv-x="665" d="M74 -389h264v2150h-264v123h402v-2396h-402v123z" />
<glyph unicode="^" horiz-adv-x="1443" d="M79 404l569 1132h146l568 -1132h-136l-504 1001l-504 -1001h-139z" />
<glyph unicode="_" horiz-adv-x="1428" d="M100 0h1229v-154h-1229v154z" />
<glyph unicode="`" horiz-adv-x="130" d="M61 1536h185l225 -379h-107z" />
<glyph unicode="a" d="M136 266q0 133 93 211.5t252 78.5h392v84q0 115 -81.5 180.5t-207.5 65.5t-208 -65.5t-82 -180.5h-158q0 119 61 212t163 142.5t226 49.5q188 0 317 -112.5t129 -291.5v-374q0 -67 29.5 -100t75.5 -33h64v-133q-31 -20 -77 -20q-90 0 -151 49.5t-87 134.5 q-56 -87 -161 -135.5t-241 -48.5q-161 0 -254.5 77.5t-93.5 208.5zM310 269q0 -69 56.5 -110t150.5 -41q128 0 222.5 64t133.5 174v66h-358q-93 0 -149 -42t-56 -111z" />
<glyph unicode="b" horiz-adv-x="1367" d="M187 0v1884h159v-993q156 153 373 153q145 0 267.5 -71t194 -193.5t71.5 -267.5t-71.5 -267.5t-194 -193.5t-267.5 -71q-217 0 -373 153v-133h-159zM346 512q0 -155 109 -264.5t264 -109.5t264.5 109.5t109.5 264.5t-109.5 264.5t-264.5 109.5t-264 -109.5t-109 -264.5z " />
<glyph unicode="c" d="M115 512q0 145 71.5 267.5t194 193.5t267.5 71q177 0 316 -102.5t191 -265.5h-169q-46 95 -137 152.5t-201 57.5q-156 0 -265 -108.5t-109 -265.5t109 -265.5t265 -108.5q110 0 201 57.5t137 152.5h169q-52 -163 -191 -265.5t-316 -102.5q-145 0 -267.5 71t-194 193.5 t-71.5 267.5z" />
<glyph unicode="d" horiz-adv-x="1367" d="M115 512q0 145 71.5 267.5t194 193.5t267.5 71q217 0 373 -153v993h159v-1884h-159v133q-156 -153 -373 -153q-145 0 -267.5 71t-194 193.5t-71.5 267.5zM274 512q0 -155 109.5 -264.5t264.5 -109.5q154 0 263.5 109.5t109.5 264.5t-109.5 264.5t-263.5 109.5 q-155 0 -264.5 -109.5t-109.5 -264.5z" />
<glyph unicode="e" horiz-adv-x="1285" d="M115 512q0 145 71.5 267.5t194 193.5t267.5 71q144 0 264.5 -68.5t192 -188.5t75.5 -265l-2 -33h-904q8 -148 115.5 -249.5t258.5 -101.5q115 0 208 61t135 162h169q-51 -167 -191.5 -274t-320.5 -107q-145 0 -267.5 71t-194 193.5t-71.5 267.5zM294 632h704 q-37 113 -133 183.5t-217 70.5t-218 -70.5t-136 -183.5z" />
<glyph unicode="f" horiz-adv-x="706" d="M74 870v154h172v571q0 120 87 204.5t207 84.5q85 0 136 -33v-123l-118 3q-64 0 -109 -44t-45 -113v-550h274v-154h-274v-870h-158v870h-172z" />
<glyph unicode="g" horiz-adv-x="1367" d="M115 512q0 146 71.5 268.5t194 193t267.5 70.5q106 0 202.5 -39t168.5 -109v128h161v-1114q0 -220 -156 -376t-376 -156q-171 0 -308.5 98t-193.5 255l146 64q37 -113 135 -185.5t221 -72.5q154 0 263.5 109.5t109.5 263.5v223q-156 -153 -373 -153q-145 0 -267.5 71 t-194 193.5t-71.5 267.5zM274 512q0 -154 109.5 -264t264.5 -110q154 0 263.5 110t109.5 264q0 155 -109.5 264.5t-263.5 109.5q-155 0 -264.5 -109.5t-109.5 -264.5z" />
<glyph unicode="h" horiz-adv-x="1134" d="M187 0v1884h159v-914q103 74 227 74q162 0 274.5 -113t112.5 -276v-655h-156v655q0 97 -68 164t-163 67q-94 0 -160.5 -66.5t-66.5 -164.5v-655h-159z" />
<glyph unicode="i" horiz-adv-x="570" d="M174 1324q0 47 33 78.5t80 31.5q45 0 77.5 -31.5t32.5 -78.5q0 -44 -33 -76t-77 -32q-46 0 -79.5 32t-33.5 76zM207 0v1024h159v-1024h-159z" />
<glyph unicode="j" horiz-adv-x="573" d="M-61 -458l115 -3q64 0 108.5 43.5t44.5 112.5v1329h159v-1349q0 -120 -86 -204.5t-206 -84.5q-87 0 -135 33v123zM177 1324q0 47 32.5 78.5t77.5 31.5t77.5 -31.5t32.5 -78.5q0 -44 -33 -76t-77 -32t-77 32t-33 76z" />
<glyph unicode="k" horiz-adv-x="1057" d="M202 0v1884h159v-1308l466 448h212l-476 -456l520 -568h-218l-504 571v-571h-159z" />
<glyph unicode="l" horiz-adv-x="532" d="M187 0v1884h159v-1884h-159z" />
<glyph unicode="m" horiz-adv-x="1720" d="M187 0v1024h159v-95q102 115 238 115q81 0 156.5 -41t127.5 -112q52 72 130 112.5t169 40.5q159 0 270.5 -114t111.5 -275v-655h-159v655q0 96 -65.5 163.5t-157.5 67.5q-90 0 -155 -67.5t-65 -163.5v-655h-159v655q0 96 -65 163.5t-155 67.5q-93 0 -157.5 -67.5 t-64.5 -163.5v-655h-159z" />
<glyph unicode="n" horiz-adv-x="1146" d="M187 0v1024h159v-82q107 102 248 102q150 0 264.5 -115t114.5 -276v-653h-159v653q0 98 -67.5 165.5t-165.5 67.5t-166.5 -67.5t-68.5 -165.5v-653h-159z" />
<glyph unicode="o" horiz-adv-x="1295" d="M115 512q0 145 71.5 267.5t194 193.5t267.5 71q220 0 376 -156t156 -376t-156 -376t-376 -156q-145 0 -267.5 71t-194 193.5t-71.5 267.5zM274 512q0 -155 109.5 -264.5t264.5 -109.5q154 0 263.5 109.5t109.5 264.5t-109.5 264.5t-263.5 109.5q-155 0 -264.5 -109.5 t-109.5 -264.5z" />
<glyph unicode="p" horiz-adv-x="1367" d="M187 -614v1638h159v-133q156 153 373 153q145 0 267.5 -71t194 -193.5t71.5 -267.5t-71.5 -267.5t-194 -193.5t-267.5 -71q-217 0 -373 153v-747h-159zM346 512q0 -155 109 -264.5t264 -109.5t264.5 109.5t109.5 264.5t-109.5 264.5t-264.5 109.5t-264 -109.5 t-109 -264.5z" />
<glyph unicode="q" horiz-adv-x="1367" d="M115 512q0 145 71.5 267.5t194 193.5t267.5 71q217 0 373 -153v133h159v-1329q0 -69 45 -112.5t109 -43.5h94v-133q-48 -20 -112 -20q-120 0 -207.5 84.5t-87.5 204.5v458q-156 -153 -373 -153q-145 0 -267.5 71t-194 193.5t-71.5 267.5zM274 512q0 -155 109.5 -264.5 t264.5 -109.5q154 0 263.5 109.5t109.5 264.5t-109.5 264.5t-263.5 109.5q-155 0 -264.5 -109.5t-109.5 -264.5z" />
<glyph unicode="r" horiz-adv-x="778" d="M187 0v1024h159v-146q59 79 146 122.5t194 43.5q47 0 79 -7v-161q-29 10 -79 10q-141 0 -240.5 -95.5t-99.5 -234.5v-556h-159z" />
<glyph unicode="s" horiz-adv-x="847" d="M84 202l154 62q11 -55 70.5 -91.5t131.5 -36.5t120.5 37.5t48.5 102.5q0 57 -42.5 89.5t-146.5 74.5q-146 55 -217.5 126.5t-71.5 186.5q0 90 43.5 157.5t110 100.5t143.5 33q97 0 183.5 -49t115.5 -119l-138 -72q-21 40 -62 61t-92 21q-65 0 -104 -32.5t-39 -95.5 q0 -27 9 -48t20.5 -35.5t40 -31t50.5 -27t69 -30.5q49 -20 82 -35.5t75.5 -43.5t68 -58t43.5 -75t18 -98q0 -130 -95.5 -213t-232.5 -83q-122 0 -224.5 64.5t-131.5 157.5z" />
<glyph unicode="t" horiz-adv-x="742" d="M54 870v154h171v445h159v-445h274v-154h-274v-581q0 -69 45 -112.5t109 -43.5h117v-120q-51 -33 -135 -33q-120 0 -207.5 84.5t-87.5 204.5v601h-171z" />
<glyph unicode="u" horiz-adv-x="1072" d="M154 369v655h156v-637q0 -114 64 -181.5t164 -67.5q101 0 164 67.5t63 181.5v637h157v-655q0 -177 -106 -283t-278 -106q-173 0 -278.5 105.5t-105.5 283.5z" />
<glyph unicode="v" horiz-adv-x="1021" d="M23 1024h172l317 -840l315 840h171l-412 -1024h-153z" />
<glyph unicode="w" horiz-adv-x="1643" d="M23 1024h179l266 -835l280 835h151l279 -840l271 840h171l-350 -1024h-174l-272 804l-274 -804h-174z" />
<glyph unicode="x" horiz-adv-x="1090" d="M23 0l428 512l-428 512h192l330 -397l333 397h190l-425 -512l425 -512h-190l-330 397l-330 -397h-195z" />
<glyph unicode="y" horiz-adv-x="1047" d="M23 1024h177l327 -840l318 840h179l-440 -1101l-218 -537h-169l246 606z" />
<glyph unicode="z" horiz-adv-x="1054" d="M84 0l589 865h-548v159h845l-589 -865h589v-159h-886z" />
<glyph unicode="{" horiz-adv-x="637" d="M120 630v110q98 51 126 122.5t28 220.5v530q0 116 58 193.5t144 77.5h92v-120q-97 0 -133 -36.5t-36 -135.5v-540q0 -131 -28.5 -217.5t-114.5 -148.5q86 -63 114.5 -150t28.5 -216v-550q0 -88 37 -126t132 -38v-121h-92q-86 0 -144 77t-58 192v535q0 152 -28.5 222.5 t-125.5 118.5z" />
<glyph unicode="|" horiz-adv-x="611" d="M251 -307v1843h107v-1843h-107z" />
<glyph unicode="}" horiz-adv-x="637" d="M69 -394q95 0 131 38t36 126v550q0 129 28.5 216t114.5 150q-86 62 -114.5 148.5t-28.5 217.5v540q0 99 -36 135.5t-131 36.5v120h90q88 0 146.5 -77.5t58.5 -193.5v-530q0 -76 4.5 -121.5t20 -90t46.5 -74.5t82 -57v-110q-97 -48 -125 -118.5t-28 -222.5v-535 q0 -116 -58.5 -192.5t-146.5 -76.5h-90v121z" />
<glyph unicode="~" horiz-adv-x="1205" d="M105 381q-7 151 74.5 247t214.5 96q78 0 136.5 -38t117.5 -113q30 -35 49 -53t50 -33.5t65 -15.5q78 0 127.5 62.5t43.5 162.5h115q10 -144 -69.5 -241t-206.5 -97q-48 0 -89.5 13.5t-77 41.5t-54 46t-48.5 53q-42 51 -77 74t-82 23q-80 0 -128 -65t-46 -163h-115z" />
<glyph unicode="&#xa1;" horiz-adv-x="624" d="M202 914q0 44 33 77t77 33t77 -33t33 -77q0 -45 -32.5 -77.5t-77.5 -32.5t-77.5 32.5t-32.5 77.5zM233 -614l15 1200h126l18 -1200h-159z" />
<glyph unicode="&#xa2;" horiz-adv-x="1118" d="M125 717q0 199 134.5 348.5t334.5 178.5v192h105v-187q141 -7 258 -82v-161q-113 102 -281 102q-164 0 -278 -114t-114 -277t114 -277.5t278 -114.5q170 0 281 103v-162q-113 -75 -258 -82v-187h-105v192q-200 29 -334.5 179t-134.5 349z" />
<glyph unicode="&#xa3;" horiz-adv-x="1264" d="M92 699v110h164v284q0 204 126 333.5t325 129.5q139 0 259.5 -87.5t162.5 -221.5l-120 -54q-23 102 -110 170t-192 68q-148 0 -238 -93t-90 -245v-284h381v-110h-381v-581h778v-118h-901v699h-164z" />
<glyph unicode="&#xa4;" horiz-adv-x="1249" d="M166 376l105 103q-90 116 -90 265.5t90 264.5l-102 99l87 93l105 -105q117 92 266 92t264 -90l102 100l90 -87l-103 -100q90 -117 90 -267.5t-90 -267.5l103 -100l-87 -92l-105 105q-115 -92 -265.5 -92t-267.5 92l-105 -105zM305.5 742.5q-0.5 -132.5 91.5 -225.5 q97 -94 229 -94.5t226 94.5q94 93 94 226.5t-96 226.5q-94 92 -225.5 92t-227.5 -94q-91 -93 -91.5 -225.5z" />
<glyph unicode="&#xa5;" horiz-adv-x="1397" d="M100 1536h153l443 -684l448 684h151l-524 -799v-20h422v-103h-422v-210h422v-102h-422v-302h-144v302h-417v102h417v210h-420v103h420v20z" />
<glyph unicode="&#xa6;" horiz-adv-x="611" d="M251 -307v737h107v-737h-107zM251 799v737h107v-737h-107z" />
<glyph unicode="&#xa7;" horiz-adv-x="1292" d="M154 236l105 61q40 -79 146.5 -130.5t254.5 -51.5q98 0 179.5 23t133 71.5t51.5 113.5q0 57 -44 99.5t-114.5 69t-156 50t-170.5 51.5t-155.5 64t-114.5 96t-44 140q0 105 82 182q-82 74 -82 179q0 96 63 166t158.5 103t208.5 33q121 0 229.5 -39.5t175.5 -103.5l-87 -72 q-51 49 -133.5 78.5t-176.5 29.5q-83 0 -153 -20.5t-116 -64.5t-46 -104q0 -51 34.5 -91t90.5 -64.5t128 -48.5t146.5 -43t146.5 -48t128 -63.5t90.5 -90t34.5 -125.5q0 -107 -82 -184q82 -71 82 -179q0 -95 -69.5 -169t-180.5 -111.5t-242 -37.5q-173 0 -309 65.5 t-192 165.5zM348 896q0 -57 40 -99t111 -70.5t145.5 -50t167.5 -50.5t153 -58q59 48 59 118q0 56 -40 97.5t-111 69.5t-145.5 49.5t-167.5 50.5t-153 58q-59 -43 -59 -115z" />
<glyph unicode="&#xa8;" horiz-adv-x="130" d="M143 1324q0 47 33 78.5t80 31.5q45 0 77.5 -31.5t32.5 -78.5q0 -44 -33 -76t-77 -32q-46 0 -79.5 32t-33.5 76zM517 1324q0 47 32.5 78.5t77.5 31.5q46 0 78 -31.5t32 -78.5q0 -44 -32 -76t-78 -32q-44 0 -77 32t-33 76z" />
<glyph unicode="&#xa9;" horiz-adv-x="1830" d="M125 768q0 160 63 306t169 251.5t251.5 168t305.5 62.5t306 -62.5t251.5 -168t168 -251.5t62.5 -306t-62.5 -306t-168 -251.5t-251.5 -168t-306 -62.5t-305.5 62.5t-251.5 168t-169 251.5t-63 306zM223 768q0 -143 54.5 -271.5t146.5 -221t220 -147t270 -54.5 q143 0 272.5 54.5t222 147t147 221t54.5 271.5t-54.5 271.5t-147 221t-222 147t-272.5 54.5q-142 0 -270 -54.5t-220 -147t-146.5 -221t-54.5 -271.5zM486 765q0 182 131 312.5t315 130.5q146 0 261.5 -85.5t160.5 -221.5h-141q-39 79 -114.5 126.5t-166.5 47.5 q-131 0 -221.5 -90t-90.5 -220q0 -132 90.5 -222t221.5 -90q91 0 166.5 47.5t114.5 126.5h141q-45 -136 -160.5 -221.5t-261.5 -85.5q-185 0 -315.5 130.5t-130.5 314.5z" />
<glyph unicode="&#xaa;" horiz-adv-x="883" d="M90 1229q0 133 91.5 226.5t220.5 93.5q83 0 151 -41t107 -110v138h88v-614h-88v138q-39 -70 -106.5 -110.5t-151.5 -40.5q-129 0 -220.5 93t-91.5 227zM177 1229q0 -102 70 -172.5t170 -70.5t171.5 71t71.5 172q0 98 -71.5 168t-171.5 70t-170 -70t-70 -168z" />
<glyph unicode="&#xab;" horiz-adv-x="1308" d="M246 571l310 376h138l-313 -376l313 -376h-138zM614 571l313 376h138l-310 -376l310 -376h-138z" />
<glyph unicode="&#xac;" horiz-adv-x="1633" d="M202 763v120h1232v-645h-121v525h-1111z" />
<glyph unicode="&#xad;" horiz-adv-x="936" d="M102 456v153h717v-153h-717z" />
<glyph unicode="&#xae;" horiz-adv-x="1830" d="M125 768q0 160 63 306t169 251.5t251.5 168t305.5 62.5t306 -62.5t251.5 -168t168 -251.5t62.5 -306t-62.5 -306t-168 -251.5t-251.5 -168t-306 -62.5t-305.5 62.5t-251.5 168t-169 251.5t-63 306zM223 768q0 -143 54.5 -271.5t146.5 -221t220 -147t270 -54.5 q143 0 272.5 54.5t222 147t147 221t54.5 271.5t-54.5 271.5t-147 221t-222 147t-272.5 54.5q-142 0 -270 -54.5t-220 -147t-146.5 -221t-54.5 -271.5zM707 369v798h258q98 0 165.5 -65.5t67.5 -159.5q0 -78 -45.5 -137.5t-118.5 -80.5l195 -355h-100l-195 345h-138v-345h-89 zM796 804h169q60 0 100.5 39.5t40.5 98.5q0 58 -41 98t-100 40h-169v-276z" />
<glyph unicode="&#xaf;" horiz-adv-x="158" d="M120 1236v108h551v-108h-551z" />
<glyph unicode="&#xb0;" horiz-adv-x="1034" d="M243 1283q0 113 80.5 193t193.5 80t193.5 -80t80.5 -193t-80.5 -193.5t-193.5 -80.5t-193.5 80.5t-80.5 193.5zM330 1283q0 -79 54 -133t133 -54t133 54t54 133t-54 132.5t-133 53.5t-133 -53.5t-54 -132.5z" />
<glyph unicode="&#xb1;" horiz-adv-x="1656" d="M120 0v123h1416v-123h-1416zM120 753v138h640v369h136v-369h640v-138h-640v-369h-136v369h-640z" />
<glyph unicode="&#xb2;" horiz-adv-x="783" d="M105 804l310 340q71 78 93 116t22 79q0 64 -39.5 100t-98.5 38q-61 0 -101 -38.5t-38 -102.5h-87q-2 96 64 158t164 62q92 -2 154 -57t66 -147q2 -61 -27 -112.5t-116 -148.5l-189 -208h355v-79h-532z" />
<glyph unicode="&#xb3;" horiz-adv-x="747" d="M146 998h82q0 -57 43 -96t103 -39q62 0 105 44t43 107q0 61 -42.5 99.5t-105.5 38.5h-177l236 305h-287v76h440l-238 -302h21q99 0 167 -63.5t68 -158.5q0 -93 -67 -159.5t-163 -66.5q-94 0 -161 63.5t-67 151.5z" />
<glyph unicode="&#xb4;" horiz-adv-x="130" d="M20 1157l226 379h184l-302 -379h-108z" />
<glyph unicode="&#xb5;" d="M182 -512v1536h158v-622q0 -117 82.5 -199.5t199.5 -82.5q119 0 204 82.5t85 199.5v622h157v-1024h-157v159q-56 -84 -142.5 -131.5t-187.5 -47.5q-161 0 -276 110v-602h-123z" />
<glyph unicode="&#xb6;" horiz-adv-x="1290" d="M223 1193q0 167 96 255t267 88h159v-1843h-90v1157h-69q-171 0 -267 89t-96 254zM937 -307v1843h90v-1843h-90z" />
<glyph unicode="&#xb7;" horiz-adv-x="586" d="M202 737q0 37 26.5 63.5t63.5 26.5t64.5 -26.5t27.5 -63.5q0 -38 -27.5 -63.5t-64.5 -25.5t-63.5 25.5t-26.5 63.5z" />
<glyph unicode="&#xb8;" horiz-adv-x="138" d="M79 -399l87 35q23 -31 67 -52.5t82 -21.5q48 0 81.5 34t33.5 84q0 69 -58.5 96t-143.5 -6l-77 51l90 179h97l-67 -136q105 21 179.5 -33.5t74.5 -150.5q0 -89 -60.5 -150.5t-149.5 -61.5q-69 0 -138.5 39t-97.5 94z" />
<glyph unicode="&#xb9;" horiz-adv-x="570" d="M100 1459v77h205v-768h-87v691h-118z" />
<glyph unicode="&#xba;" horiz-adv-x="837" d="M90 1229q0 133 95.5 226.5t231.5 93.5q137 0 234 -93.5t97 -226.5q0 -134 -97 -227t-234 -93t-232 93t-95 227zM177 1229q0 -102 70 -172.5t170 -70.5t171.5 71t71.5 172q0 98 -71.5 168t-171.5 70t-170 -70t-70 -168z" />
<glyph unicode="&#xbb;" horiz-adv-x="1308" d="M243 195l310 376l-310 376h136l312 -376l-312 -376h-136zM612 195l312 376l-312 376h141l312 -376l-312 -376h-141z" />
<glyph unicode="&#xbc;" horiz-adv-x="2145" d="M100 1428v108h279v-1024h-108v916h-171zM376 -5l1070 1536h128l-1072 -1536h-126zM1295 215l469 809h136v-699h107v-110h-107v-215h-111v215h-494zM1462 325h327v574z" />
<glyph unicode="&#xbd;" horiz-adv-x="2181" d="M100 1428v108h279v-1024h-108v916h-171zM356 0l1070 1536h128l-1073 -1536h-125zM1326 0l430 468q97 108 128 162t31 110q0 89 -54.5 139.5t-135.5 52.5q-85 0 -139.5 -53.5t-54.5 -143.5h-118q-2 136 89.5 221t228.5 83q126 0 212 -76.5t90 -204.5q4 -86 -36 -156 t-164 -205l-259 -287h489v-110h-737z" />
<glyph unicode="&#xbe;" horiz-adv-x="2188" d="M141 801h112q0 -80 59.5 -134.5t143.5 -54.5q86 0 146.5 61t60.5 149q0 83 -59.5 136t-145.5 53h-246l326 423h-397v107h609l-328 -420h29q137 0 231 -87t94 -217q0 -131 -93 -222t-227 -91q-130 0 -222.5 87t-92.5 210zM499 -5l1070 1536h128l-1072 -1536h-126z M1336 215l469 809h135v-699h108v-110h-108v-215h-110v215h-494zM1503 325h327v574z" />
<glyph unicode="&#xbf;" horiz-adv-x="1241" d="M141 -195q0 71 15.5 127t41.5 91t59 65t67 48.5t67 41t59 44t41.5 55t15.5 76.5v251h146v-233q0 -76 -20.5 -131.5t-53 -87t-72 -56t-79.5 -47t-72.5 -51t-53 -77t-20.5 -116.5q0 -123 84 -202t215 -79q123 0 206 79t89 200h143q-4 -181 -128 -299t-310 -118 q-190 0 -315 118.5t-125 300.5zM461 942q0 46 33 78t79 32q45 0 78 -32.5t33 -77.5q0 -44 -33.5 -77t-77.5 -33q-46 0 -79 33t-33 77z" />
<glyph unicode="&#xc0;" horiz-adv-x="1292" d="M0 0l556 1536h181l556 -1536h-179l-126 358h-683l-126 -358h-179zM302 2048h184l226 -379h-108zM358 515h576l-286 826z" />
<glyph unicode="&#xc1;" horiz-adv-x="1292" d="M0 0l556 1536h181l556 -1536h-179l-126 358h-683l-126 -358h-179zM358 515h576l-286 826zM584 1669l225 379h184l-302 -379h-107z" />
<glyph unicode="&#xc2;" horiz-adv-x="1292" d="M0 0l556 1536h181l556 -1536h-179l-126 358h-683l-126 -358h-179zM358 515h576l-286 826zM366 1669l200 379h164l202 -379h-126l-158 274l-159 -274h-123z" />
<glyph unicode="&#xc3;" horiz-adv-x="1292" d="M0 0l556 1536h181l556 -1536h-179l-126 358h-683l-126 -358h-179zM292 1718q0 120 58.5 198t156.5 78q62 0 105.5 -29.5t81.5 -82.5q19 -27 38.5 -42t50.5 -15q100 0 100 159h118q0 -120 -58 -198t-160 -78q-111 0 -187 112q-33 56 -84 56q-49 0 -75.5 -44t-26.5 -114 h-118zM358 515h576l-286 826z" />
<glyph unicode="&#xc4;" horiz-adv-x="1292" d="M0 0l556 1536h181l556 -1536h-179l-126 358h-683l-126 -358h-179zM351 1836q0 47 33 78.5t79 31.5q45 0 77.5 -31.5t32.5 -78.5q0 -44 -33 -76t-77 -32q-46 0 -79 32t-33 76zM358 515h576l-286 826zM724 1836q0 47 33 78.5t78 31.5q46 0 78 -31.5t32 -78.5q0 -44 -32 -76 t-78 -32q-45 0 -78 32t-33 76z" />
<glyph unicode="&#xc5;" horiz-adv-x="1292" d="M0 0l538 1485q-47 29 -75 77t-28 102q0 88 63 150t152 62q87 0 148.5 -62t61.5 -150q0 -57 -28 -106t-74 -76l535 -1482h-179l-126 358h-683l-126 -358h-179zM358 515h576l-286 826zM525 1664q0 -54 35.5 -89.5t89.5 -35.5q51 0 87 36t36 89q0 52 -36.5 90t-86.5 38 q-53 0 -89 -37.5t-36 -90.5z" />
<glyph unicode="&#xc6;" horiz-adv-x="1817" d="M0 0l617 1536h1044v-164h-675v-522h588v-164h-588v-522h675v-164h-837v366h-494l-143 -366h-187zM392 522h432v873h-89z" />
<glyph unicode="&#xc7;" horiz-adv-x="1684" d="M125 768q0 160 62.5 306t168.5 251.5t252 168t306 62.5q217 0 399.5 -108.5t286.5 -290.5l-141 -79q-80 144 -225.5 229.5t-319.5 85.5q-170 0 -314 -83t-227.5 -227t-83.5 -315t83.5 -315t227.5 -227t314 -83q174 0 319.5 85.5t225.5 229.5l141 -79q-100 -174 -271 -281 t-377 -118l-56 -116q105 21 179 -33.5t74 -150.5q0 -89 -60 -150.5t-149 -61.5q-69 0 -138.5 39t-97.5 94l87 35q23 -31 67 -52.5t82 -21.5q48 0 81.5 34t33.5 84q0 69 -59 96t-144 -6l-76 51l79 161q-150 10 -285 76.5t-233 171t-155 245t-57 293.5z" />
<glyph unicode="&#xc8;" horiz-adv-x="1192" d="M200 0v1536h839v-159h-675v-530h588v-158h-588v-530h675v-159h-839zM274 2048h184l226 -379h-108z" />
<glyph unicode="&#xc9;" horiz-adv-x="1192" d="M200 0v1536h839v-159h-675v-530h588v-158h-588v-530h675v-159h-839zM556 1669l225 379h184l-302 -379h-107z" />
<glyph unicode="&#xca;" horiz-adv-x="1192" d="M200 0v1536h839v-159h-675v-530h588v-158h-588v-530h675v-159h-839zM338 1669l200 379h163l203 -379h-126l-158 274l-159 -274h-123z" />
<glyph unicode="&#xcb;" horiz-adv-x="1192" d="M200 0v1536h839v-159h-675v-530h588v-158h-588v-530h675v-159h-839zM323 1836q0 47 33 78.5t79 31.5q45 0 77.5 -31.5t32.5 -78.5q0 -44 -33 -76t-77 -32q-46 0 -79 32t-33 76zM696 1836q0 47 32.5 78.5t77.5 31.5q46 0 78 -31.5t32 -78.5q0 -44 -32 -76t-78 -32 q-44 0 -77 32t-33 76z" />
<glyph unicode="&#xcc;" horiz-adv-x="560" d="M-64 2048h184l226 -379h-108zM200 0v1536h164v-1536h-164z" />
<glyph unicode="&#xcd;" horiz-adv-x="560" d="M200 0v1536h164v-1536h-164zM218 1669l225 379h184l-302 -379h-107z" />
<glyph unicode="&#xce;" horiz-adv-x="560" d="M0 1669l200 379h164l202 -379h-126l-158 274l-159 -274h-123zM200 0v1536h164v-1536h-164z" />
<glyph unicode="&#xcf;" horiz-adv-x="560" d="M-15 1836q0 47 33 78.5t79 31.5q45 0 77.5 -31.5t32.5 -78.5q0 -44 -33 -76t-77 -32q-46 0 -79 32t-33 76zM200 0v1536h164v-1536h-164zM358 1836q0 47 32.5 78.5t77.5 31.5q46 0 78.5 -31.5t32.5 -78.5q0 -44 -32.5 -76t-78.5 -32q-44 0 -77 32t-33 76z" />
<glyph unicode="&#xd0;" horiz-adv-x="1500" d="M28 694v153h159v689h420q156 0 298 -60.5t245 -163.5t164 -245.5t61 -298.5t-61 -298.5t-164 -245.5t-245 -163.5t-298 -60.5h-420v694h-159zM348 164h256q168 0 307 78t219.5 217t80.5 309t-80.5 309t-219.5 217t-307 78h-256v-525h274v-153h-274v-530z" />
<glyph unicode="&#xd1;" horiz-adv-x="1638" d="M187 0v1536h153l950 -1262v1262h162v-1536h-154l-947 1262v-1262h-164zM458 1718q0 120 58.5 198t156.5 78q62 0 105.5 -29.5t81.5 -82.5q19 -27 39 -42t51 -15q100 0 100 159h117q0 -120 -57.5 -198t-159.5 -78q-111 0 -187 112q-33 56 -85 56q-49 0 -75.5 -44 t-26.5 -114h-118z" />
<glyph unicode="&#xd2;" horiz-adv-x="1830" d="M125 768q0 160 62.5 306t168.5 251.5t252 168t306 62.5q161 0 307.5 -62.5t251.5 -168t167 -251.5t62 -306t-62 -306t-167 -251.5t-251.5 -168t-307.5 -62.5q-160 0 -306 62.5t-252 168t-168.5 251.5t-62.5 306zM289 768q0 -171 83.5 -315t227.5 -227t314 -83 q128 0 244 49t199.5 132.5t132.5 199.5t49 244t-49 244t-132.5 199.5t-199.5 132.5t-244 49q-170 0 -314 -83t-227.5 -227t-83.5 -315zM568 2048h185l225 -379h-108z" />
<glyph unicode="&#xd3;" horiz-adv-x="1830" d="M125 768q0 160 62.5 306t168.5 251.5t252 168t306 62.5q161 0 307.5 -62.5t251.5 -168t167 -251.5t62 -306t-62 -306t-167 -251.5t-251.5 -168t-307.5 -62.5q-160 0 -306 62.5t-252 168t-168.5 251.5t-62.5 306zM289 768q0 -171 83.5 -315t227.5 -227t314 -83 q128 0 244 49t199.5 132.5t132.5 199.5t49 244t-49 244t-132.5 199.5t-199.5 132.5t-244 49q-170 0 -314 -83t-227.5 -227t-83.5 -315zM850 1669l225 379h185l-303 -379h-107z" />
<glyph unicode="&#xd4;" horiz-adv-x="1830" d="M125 768q0 160 62.5 306t168.5 251.5t252 168t306 62.5q161 0 307.5 -62.5t251.5 -168t167 -251.5t62 -306t-62 -306t-167 -251.5t-251.5 -168t-307.5 -62.5q-160 0 -306 62.5t-252 168t-168.5 251.5t-62.5 306zM289 768q0 -171 83.5 -315t227.5 -227t314 -83 q128 0 244 49t199.5 132.5t132.5 199.5t49 244t-49 244t-132.5 199.5t-199.5 132.5t-244 49q-170 0 -314 -83t-227.5 -227t-83.5 -315zM632 1669l200 379h164l202 -379h-125l-159 274l-159 -274h-123z" />
<glyph unicode="&#xd5;" horiz-adv-x="1830" d="M125 768q0 160 62.5 306t168.5 251.5t252 168t306 62.5q161 0 307.5 -62.5t251.5 -168t167 -251.5t62 -306t-62 -306t-167 -251.5t-251.5 -168t-307.5 -62.5q-160 0 -306 62.5t-252 168t-168.5 251.5t-62.5 306zM289 768q0 -171 83.5 -315t227.5 -227t314 -83 q128 0 244 49t199.5 132.5t132.5 199.5t49 244t-49 244t-132.5 199.5t-199.5 132.5t-244 49q-170 0 -314 -83t-227.5 -227t-83.5 -315zM558 1718q0 120 58.5 198t156.5 78q62 0 105.5 -29.5t81.5 -82.5q19 -27 39 -42t51 -15q99 0 99 159h118q0 -120 -57.5 -198t-159.5 -78 q-111 0 -187 112q-33 56 -85 56q-49 0 -75.5 -44t-26.5 -114h-118z" />
<glyph unicode="&#xd6;" horiz-adv-x="1830" d="M125 768q0 160 62.5 306t168.5 251.5t252 168t306 62.5q161 0 307.5 -62.5t251.5 -168t167 -251.5t62 -306t-62 -306t-167 -251.5t-251.5 -168t-307.5 -62.5q-160 0 -306 62.5t-252 168t-168.5 251.5t-62.5 306zM289 768q0 -171 83.5 -315t227.5 -227t314 -83 q128 0 244 49t199.5 132.5t132.5 199.5t49 244t-49 244t-132.5 199.5t-199.5 132.5t-244 49q-170 0 -314 -83t-227.5 -227t-83.5 -315zM617 1836q0 47 33 78.5t80 31.5q45 0 77.5 -31.5t32.5 -78.5q0 -44 -33 -76t-77 -32q-46 0 -79.5 32t-33.5 76zM991 1836q0 47 32.5 78.5 t77.5 31.5q46 0 78 -31.5t32 -78.5q0 -44 -32 -76t-78 -32q-44 0 -77 32t-33 76z" />
<glyph unicode="&#xd7;" horiz-adv-x="1500" d="M253 305l331 330l-331 330l167 172l333 -333l332 333l167 -172l-330 -330l330 -330l-167 -172l-332 333l-333 -333z" />
<glyph unicode="&#xd8;" horiz-adv-x="1830" d="M125 768q0 160 62.5 306t168.5 251.5t252 168t306 62.5q215 0 394 -104l120 174l118 -77l-123 -177q131 -112 205 -268.5t74 -335.5q0 -160 -62 -306t-167 -251.5t-251.5 -168t-307.5 -62.5q-206 0 -389 102l-123 -174l-120 74l125 182q-132 109 -207 267t-75 337z M289 768q0 -139 56.5 -261t156.5 -210l711 1021q-147 75 -299 75q-170 0 -314 -83t-227.5 -227t-83.5 -315zM617 218q138 -75 297 -75q128 0 244 49t199.5 132.5t132.5 199.5t49 244q0 138 -56 259.5t-154 208.5z" />
<glyph unicode="&#xd9;" horiz-adv-x="1512" d="M179 504v1032h164v-1006q0 -167 117 -277t295 -110q179 0 297 110t118 277v1006h164v-1032q0 -149 -74.5 -269t-207 -187.5t-297.5 -67.5q-164 0 -296 67.5t-206 187.5t-74 269zM410 2048h184l225 -379h-107z" />
<glyph unicode="&#xda;" horiz-adv-x="1512" d="M179 504v1032h164v-1006q0 -167 117 -277t295 -110q179 0 297 110t118 277v1006h164v-1032q0 -149 -74.5 -269t-207 -187.5t-297.5 -67.5q-164 0 -296 67.5t-206 187.5t-74 269zM691 1669l225 379h185l-302 -379h-108z" />
<glyph unicode="&#xdb;" horiz-adv-x="1512" d="M179 504v1032h164v-1006q0 -167 117 -277t295 -110q179 0 297 110t118 277v1006h164v-1032q0 -149 -74.5 -269t-207 -187.5t-297.5 -67.5q-164 0 -296 67.5t-206 187.5t-74 269zM474 1669l199 379h164l202 -379h-125l-159 274l-159 -274h-122z" />
<glyph unicode="&#xdc;" horiz-adv-x="1512" d="M179 504v1032h164v-1006q0 -167 117 -277t295 -110q179 0 297 110t118 277v1006h164v-1032q0 -149 -74.5 -269t-207 -187.5t-297.5 -67.5q-164 0 -296 67.5t-206 187.5t-74 269zM458 1836q0 47 33 78.5t80 31.5q45 0 77.5 -31.5t32.5 -78.5q0 -44 -33 -76t-77 -32 q-46 0 -79.5 32t-33.5 76zM832 1836q0 47 32.5 78.5t77.5 31.5q46 0 78 -31.5t32 -78.5q0 -44 -32 -76t-78 -32q-44 0 -77 32t-33 76z" />
<glyph unicode="&#xdd;" horiz-adv-x="1241" d="M3 1536h204l415 -637l415 637h202l-535 -806v-730h-164v727zM558 1669l225 379h185l-302 -379h-108z" />
<glyph unicode="&#xde;" horiz-adv-x="1256" d="M202 0v1536h159v-212h387q177 0 302 -126t125 -305q0 -177 -125 -299.5t-302 -122.5h-387v-471h-159zM361 630h374q121 0 198.5 75t77.5 194q0 117 -78 191.5t-198 74.5h-374v-535z" />
<glyph unicode="&#xdf;" horiz-adv-x="1390" d="M202 0v1101q0 188 138 311.5t344 123.5q199 0 328.5 -118t129.5 -299q0 -102 -44 -189.5t-120 -146.5q115 -53 184 -155.5t69 -230.5q0 -172 -117 -284.5t-285 -112.5h-297v164h272q112 0 189 64t77 176q0 121 -85.5 205.5t-208.5 84.5h-121v133h52q119 0 201.5 84 t82.5 205q0 122 -85.5 200.5t-221.5 78.5q-138 0 -230.5 -84t-92.5 -210v-1101h-159z" />
<glyph unicode="&#xe0;" d="M136 266q0 133 93 211.5t252 78.5h392v84q0 115 -81.5 180.5t-207.5 65.5t-208 -65.5t-82 -180.5h-158q0 119 61 212t163 142.5t226 49.5q188 0 317 -112.5t129 -291.5v-374q0 -67 29.5 -100t75.5 -33h64v-133q-31 -20 -77 -20q-90 0 -151 49.5t-87 134.5 q-56 -87 -161 -135.5t-241 -48.5q-161 0 -254.5 77.5t-93.5 208.5zM238 1536h184l226 -379h-108zM310 269q0 -69 56.5 -110t150.5 -41q128 0 222.5 64t133.5 174v66h-358q-93 0 -149 -42t-56 -111z" />
<glyph unicode="&#xe1;" d="M136 266q0 133 93 211.5t252 78.5h392v84q0 115 -81.5 180.5t-207.5 65.5t-208 -65.5t-82 -180.5h-158q0 119 61 212t163 142.5t226 49.5q188 0 317 -112.5t129 -291.5v-374q0 -67 29.5 -100t75.5 -33h64v-133q-31 -20 -77 -20q-90 0 -151 49.5t-87 134.5 q-56 -87 -161 -135.5t-241 -48.5q-161 0 -254.5 77.5t-93.5 208.5zM310 269q0 -69 56.5 -110t150.5 -41q128 0 222.5 64t133.5 174v66h-358q-93 0 -149 -42t-56 -111zM520 1157l225 379h184l-302 -379h-107z" />
<glyph unicode="&#xe2;" d="M136 266q0 133 93 211.5t252 78.5h392v84q0 115 -81.5 180.5t-207.5 65.5t-208 -65.5t-82 -180.5h-158q0 119 61 212t163 142.5t226 49.5q188 0 317 -112.5t129 -291.5v-374q0 -67 29.5 -100t75.5 -33h64v-133q-31 -20 -77 -20q-90 0 -151 49.5t-87 134.5 q-56 -87 -161 -135.5t-241 -48.5q-161 0 -254.5 77.5t-93.5 208.5zM302 1157l200 379h164l202 -379h-126l-158 274l-159 -274h-123zM310 269q0 -69 56.5 -110t150.5 -41q128 0 222.5 64t133.5 174v66h-358q-93 0 -149 -42t-56 -111z" />
<glyph unicode="&#xe3;" d="M136 266q0 133 93 211.5t252 78.5h392v84q0 115 -81.5 180.5t-207.5 65.5t-208 -65.5t-82 -180.5h-158q0 119 61 212t163 142.5t226 49.5q188 0 317 -112.5t129 -291.5v-374q0 -67 29.5 -100t75.5 -33h64v-133q-31 -20 -77 -20q-90 0 -151 49.5t-87 134.5 q-56 -87 -161 -135.5t-241 -48.5q-161 0 -254.5 77.5t-93.5 208.5zM228 1206q0 120 58.5 198t156.5 78q62 0 105.5 -29.5t81.5 -82.5q19 -27 38.5 -42t50.5 -15q100 0 100 159h118q0 -120 -58 -198t-160 -78q-111 0 -187 112q-33 56 -84 56q-49 0 -75.5 -44t-26.5 -114h-118 zM310 269q0 -69 56.5 -110t150.5 -41q128 0 222.5 64t133.5 174v66h-358q-93 0 -149 -42t-56 -111z" />
<glyph unicode="&#xe4;" d="M136 266q0 133 93 211.5t252 78.5h392v84q0 115 -81.5 180.5t-207.5 65.5t-208 -65.5t-82 -180.5h-158q0 119 61 212t163 142.5t226 49.5q188 0 317 -112.5t129 -291.5v-374q0 -67 29.5 -100t75.5 -33h64v-133q-31 -20 -77 -20q-90 0 -151 49.5t-87 134.5 q-56 -87 -161 -135.5t-241 -48.5q-161 0 -254.5 77.5t-93.5 208.5zM287 1324q0 47 33 78.5t79 31.5q45 0 77.5 -31.5t32.5 -78.5q0 -44 -33 -76t-77 -32q-46 0 -79 32t-33 76zM310 269q0 -69 56.5 -110t150.5 -41q128 0 222.5 64t133.5 174v66h-358q-93 0 -149 -42t-56 -111 zM660 1324q0 47 33 78.5t78 31.5q46 0 78 -31.5t32 -78.5q0 -44 -32 -76t-78 -32q-45 0 -78 32t-33 76z" />
<glyph unicode="&#xe5;" d="M136 266q0 133 93 211.5t252 78.5h392v84q0 115 -81.5 180.5t-207.5 65.5t-208 -65.5t-82 -180.5h-158q0 119 61 212t163 142.5t226 49.5q188 0 317 -112.5t129 -291.5v-374q0 -67 29.5 -100t75.5 -33h64v-133q-31 -20 -77 -20q-90 0 -151 49.5t-87 134.5 q-56 -87 -161 -135.5t-241 -48.5q-161 0 -254.5 77.5t-93.5 208.5zM310 269q0 -69 56.5 -110t150.5 -41q128 0 222.5 64t133.5 174v66h-358q-93 0 -149 -42t-56 -111zM369 1334q0 88 63 150t152 62q87 0 148.5 -62t61.5 -150q0 -87 -62 -150t-148 -63q-88 0 -151.5 63 t-63.5 150zM458 1334q0 -54 36 -90t90 -36q51 0 87 36.5t36 89.5q0 52 -36.5 90t-86.5 38q-53 0 -89.5 -38t-36.5 -90z" />
<glyph unicode="&#xe6;" horiz-adv-x="2012" d="M136 307q0 149 109.5 236t294.5 87h297v41q0 106 -71.5 174.5t-181.5 68.5q-85 0 -155 -44t-91 -112l-159 54q41 103 152.5 167.5t254.5 64.5q128 0 226.5 -54.5t147.5 -147.5q74 94 183 148t234 54q219 0 373 -151t160 -371l-3 -33h-903q8 -148 115 -249.5t258 -101.5 q115 0 208 61t135 162h169q-51 -167 -191.5 -274t-320.5 -107q-129 0 -240 56.5t-185 155.5q-103 -99 -220.5 -155.5t-224.5 -56.5q-164 0 -267.5 90.5t-103.5 236.5zM294 302q0 -81 57.5 -129t155.5 -48q85 0 185.5 55.5t185.5 147.5q-29 78 -33 156h-305q-118 0 -182 -47 t-64 -135zM1024 632h704q-37 112 -133 183t-218 71q-121 0 -217.5 -70.5t-135.5 -183.5z" />
<glyph unicode="&#xe7;" d="M115 512q0 145 71.5 267.5t194 193.5t267.5 71q177 0 316 -102.5t191 -265.5h-169q-46 95 -137 152.5t-201 57.5q-156 0 -265 -108.5t-109 -265.5t109 -265.5t265 -108.5q110 0 201 57.5t137 152.5h169q-48 -151 -172 -251t-282 -115l-58 -118q105 21 179 -33.5 t74 -150.5q0 -89 -60.5 -150.5t-149.5 -61.5q-69 0 -138 39t-97 94l87 35q23 -31 66.5 -52.5t81.5 -21.5q48 0 81.5 34t33.5 84q0 69 -58.5 96t-143.5 -6l-77 51l80 161q-204 17 -345.5 169.5t-141.5 360.5z" />
<glyph unicode="&#xe8;" horiz-adv-x="1285" d="M115 512q0 145 71.5 267.5t194 193.5t267.5 71q144 0 264.5 -68.5t192 -188.5t75.5 -265l-2 -33h-904q8 -148 115.5 -249.5t258.5 -101.5q115 0 208 61t135 162h169q-51 -167 -191.5 -274t-320.5 -107q-145 0 -267.5 71t-194 193.5t-71.5 267.5zM294 632h704 q-37 113 -133 183.5t-217 70.5t-218 -70.5t-136 -183.5zM312 1546h185l225 -379h-108z" />
<glyph unicode="&#xe9;" horiz-adv-x="1285" d="M115 512q0 145 71.5 267.5t194 193.5t267.5 71q144 0 264.5 -68.5t192 -188.5t75.5 -265l-2 -33h-904q8 -148 115.5 -249.5t258.5 -101.5q115 0 208 61t135 162h169q-51 -167 -191.5 -274t-320.5 -107q-145 0 -267.5 71t-194 193.5t-71.5 267.5zM294 632h704 q-37 113 -133 183.5t-217 70.5t-218 -70.5t-136 -183.5zM594 1167l225 379h185l-303 -379h-107z" />
<glyph unicode="&#xea;" horiz-adv-x="1285" d="M115 512q0 145 71.5 267.5t194 193.5t267.5 71q144 0 264.5 -68.5t192 -188.5t75.5 -265l-2 -33h-904q8 -148 115.5 -249.5t258.5 -101.5q115 0 208 61t135 162h169q-51 -167 -191.5 -274t-320.5 -107q-145 0 -267.5 71t-194 193.5t-71.5 267.5zM294 632h704 q-37 113 -133 183.5t-217 70.5t-218 -70.5t-136 -183.5zM376 1167l200 379h164l202 -379h-125l-159 274l-159 -274h-123z" />
<glyph unicode="&#xeb;" horiz-adv-x="1285" d="M115 512q0 145 71.5 267.5t194 193.5t267.5 71q144 0 264.5 -68.5t192 -188.5t75.5 -265l-2 -33h-904q8 -148 115.5 -249.5t258.5 -101.5q115 0 208 61t135 162h169q-51 -167 -191.5 -274t-320.5 -107q-145 0 -267.5 71t-194 193.5t-71.5 267.5zM294 632h704 q-37 113 -133 183.5t-217 70.5t-218 -70.5t-136 -183.5zM361 1334q0 47 33 78.5t80 31.5q45 0 77.5 -31.5t32.5 -78.5q0 -44 -33 -76t-77 -32q-46 0 -79.5 32t-33.5 76zM735 1334q0 47 32.5 78.5t77.5 31.5q46 0 78 -31.5t32 -78.5q0 -44 -32 -76t-78 -32q-44 0 -77 32 t-33 76z" />
<glyph unicode="&#xec;" horiz-adv-x="560" d="M-64 1536h184l226 -379h-108zM202 0v1024h159v-1024h-159z" />
<glyph unicode="&#xed;" horiz-adv-x="560" d="M202 0v1024h159v-1024h-159zM218 1157l225 379h184l-302 -379h-107z" />
<glyph unicode="&#xee;" horiz-adv-x="560" d="M0 1157l200 379h164l202 -379h-126l-158 274l-159 -274h-123zM202 0v1024h159v-1024h-159z" />
<glyph unicode="&#xef;" horiz-adv-x="560" d="M-15 1324q0 47 33 78.5t79 31.5q45 0 77.5 -31.5t32.5 -78.5q0 -44 -33 -76t-77 -32q-46 0 -79 32t-33 76zM202 0v1024h159v-1024h-159zM358 1324q0 47 32.5 78.5t77.5 31.5q46 0 78.5 -31.5t32.5 -78.5q0 -44 -32.5 -76t-78.5 -32q-44 0 -77 32t-33 76z" />
<glyph unicode="&#xf0;" horiz-adv-x="1313" d="M115 512q0 108 43.5 206.5t117 170t176 113.5t214.5 42q178 0 325 -102q-78 221 -233 348l-113 -143l-82 66l108 136q-131 77 -302 82l30 131q193 0 359 -103l94 118l80 -61l-92 -118q173 -140 273 -373.5t100 -512.5q0 -108 -43.5 -206.5t-116.5 -170t-174.5 -113.5 t-212.5 -42q-112 0 -214.5 42t-176 113.5t-117 170t-43.5 206.5zM289 512q0 -156 110 -266t267 -110q155 0 264 110t109 266t-109 266t-264 110q-157 0 -267 -110t-110 -266z" />
<glyph unicode="&#xf1;" horiz-adv-x="1146" d="M187 0v1024h159v-82q107 102 248 102q150 0 264.5 -115t114.5 -276v-653h-159v653q0 98 -67.5 165.5t-165.5 67.5t-166.5 -67.5t-68.5 -165.5v-653h-159zM225 1206q0 120 58.5 198t156.5 78q62 0 105.5 -29.5t81.5 -82.5q19 -27 39 -42t51 -15q100 0 100 159h117 q0 -120 -57.5 -198t-159.5 -78q-111 0 -187 112q-33 56 -85 56q-49 0 -75.5 -44t-26.5 -114h-118z" />
<glyph unicode="&#xf2;" horiz-adv-x="1295" d="M115 512q0 145 71.5 267.5t194 193.5t267.5 71q220 0 376 -156t156 -376t-156 -376t-376 -156q-145 0 -267.5 71t-194 193.5t-71.5 267.5zM274 512q0 -155 109.5 -264.5t264.5 -109.5q154 0 263.5 109.5t109.5 264.5t-109.5 264.5t-263.5 109.5q-155 0 -264.5 -109.5 t-109.5 -264.5zM302 1536h184l226 -379h-108z" />
<glyph unicode="&#xf3;" horiz-adv-x="1295" d="M115 512q0 145 71.5 267.5t194 193.5t267.5 71q220 0 376 -156t156 -376t-156 -376t-376 -156q-145 0 -267.5 71t-194 193.5t-71.5 267.5zM274 512q0 -155 109.5 -264.5t264.5 -109.5q154 0 263.5 109.5t109.5 264.5t-109.5 264.5t-263.5 109.5q-155 0 -264.5 -109.5 t-109.5 -264.5zM584 1157l225 379h184l-302 -379h-107z" />
<glyph unicode="&#xf4;" horiz-adv-x="1295" d="M115 512q0 145 71.5 267.5t194 193.5t267.5 71q220 0 376 -156t156 -376t-156 -376t-376 -156q-145 0 -267.5 71t-194 193.5t-71.5 267.5zM274 512q0 -155 109.5 -264.5t264.5 -109.5q154 0 263.5 109.5t109.5 264.5t-109.5 264.5t-263.5 109.5q-155 0 -264.5 -109.5 t-109.5 -264.5zM366 1157l200 379h164l202 -379h-126l-158 274l-159 -274h-123z" />
<glyph unicode="&#xf5;" horiz-adv-x="1295" d="M115 512q0 145 71.5 267.5t194 193.5t267.5 71q220 0 376 -156t156 -376t-156 -376t-376 -156q-145 0 -267.5 71t-194 193.5t-71.5 267.5zM274 512q0 -155 109.5 -264.5t264.5 -109.5q154 0 263.5 109.5t109.5 264.5t-109.5 264.5t-263.5 109.5q-155 0 -264.5 -109.5 t-109.5 -264.5zM292 1206q0 120 58.5 198t156.5 78q62 0 105.5 -29.5t81.5 -82.5q19 -27 38.5 -42t50.5 -15q100 0 100 159h118q0 -120 -58 -198t-160 -78q-111 0 -187 112q-33 56 -84 56q-49 0 -75.5 -44t-26.5 -114h-118z" />
<glyph unicode="&#xf6;" horiz-adv-x="1295" d="M115 512q0 145 71.5 267.5t194 193.5t267.5 71q220 0 376 -156t156 -376t-156 -376t-376 -156q-145 0 -267.5 71t-194 193.5t-71.5 267.5zM274 512q0 -155 109.5 -264.5t264.5 -109.5q154 0 263.5 109.5t109.5 264.5t-109.5 264.5t-263.5 109.5q-155 0 -264.5 -109.5 t-109.5 -264.5zM351 1324q0 47 33 78.5t79 31.5q45 0 77.5 -31.5t32.5 -78.5q0 -44 -33 -76t-77 -32q-46 0 -79 32t-33 76zM724 1324q0 47 33 78.5t78 31.5q46 0 78 -31.5t32 -78.5q0 -44 -32 -76t-78 -32q-45 0 -78 32t-33 76z" />
<glyph unicode="&#xf7;" horiz-adv-x="1510" d="M141 517v92h1229v-92h-1229zM653 215q0 42 30.5 72t71.5 30t72 -30t31 -72t-31 -72t-72 -30t-71.5 30t-30.5 72zM653 911q0 42 30.5 72.5t71.5 30.5t72 -30.5t31 -72.5t-31 -72t-72 -30t-71.5 30t-30.5 72z" />
<glyph unicode="&#xf8;" horiz-adv-x="1295" d="M115 512q0 145 71.5 267.5t194 193.5t267.5 71q144 0 266 -71l90 130l81 -51l-92 -133q87 -75 137 -181t50 -226q0 -220 -156 -376t-376 -156q-140 0 -261 69l-93 -131l-82 51l95 133q-90 76 -141 182.5t-51 227.5zM274 512q0 -81 33 -153.5t90 -125.5l425 609 q-80 44 -174 44q-155 0 -264.5 -109.5t-109.5 -264.5zM476 179q80 -41 172 -41q154 0 263.5 109.5t109.5 264.5q0 165 -120 274z" />
<glyph unicode="&#xf9;" horiz-adv-x="1072" d="M154 369v655h156v-637q0 -114 64 -181.5t164 -67.5q101 0 164 67.5t63 181.5v637h157v-655q0 -177 -106 -283t-278 -106q-173 0 -278.5 105.5t-105.5 283.5zM197 1536h184l226 -379h-108z" />
<glyph unicode="&#xfa;" horiz-adv-x="1072" d="M154 369v655h156v-637q0 -114 64 -181.5t164 -67.5q101 0 164 67.5t63 181.5v637h157v-655q0 -177 -106 -283t-278 -106q-173 0 -278.5 105.5t-105.5 283.5zM479 1157l225 379h184l-302 -379h-107z" />
<glyph unicode="&#xfb;" horiz-adv-x="1072" d="M154 369v655h156v-637q0 -114 64 -181.5t164 -67.5q101 0 164 67.5t63 181.5v637h157v-655q0 -177 -106 -283t-278 -106q-173 0 -278.5 105.5t-105.5 283.5zM261 1157l200 379h164l202 -379h-126l-158 274l-159 -274h-123z" />
<glyph unicode="&#xfc;" horiz-adv-x="1072" d="M154 369v655h156v-637q0 -114 64 -181.5t164 -67.5q101 0 164 67.5t63 181.5v637h157v-655q0 -177 -106 -283t-278 -106q-173 0 -278.5 105.5t-105.5 283.5zM246 1324q0 47 33 78.5t79 31.5q45 0 77.5 -31.5t32.5 -78.5q0 -44 -33 -76t-77 -32q-46 0 -79 32t-33 76z M620 1324q0 47 32.5 78.5t77.5 31.5q46 0 78 -31.5t32 -78.5q0 -44 -32 -76t-78 -32q-44 0 -77 32t-33 76z" />
<glyph unicode="&#xfd;" horiz-adv-x="1047" d="M23 1024h177l327 -840l318 840h179l-440 -1101l-218 -537h-169l246 606zM461 1157l225 379h184l-302 -379h-107z" />
<glyph unicode="&#xfe;" horiz-adv-x="1382" d="M202 -614v2314h159v-809q156 153 374 153q108 0 206.5 -42t170 -113.5t113.5 -170t42 -206.5t-42 -206.5t-113.5 -170t-170 -113.5t-206.5 -42q-218 0 -374 153v-747h-159zM361 512q0 -155 109.5 -264.5t264.5 -109.5q154 0 263.5 109.5t109.5 264.5t-109.5 264.5 t-263.5 109.5q-155 0 -264.5 -109.5t-109.5 -264.5z" />
<glyph unicode="&#xff;" horiz-adv-x="1047" d="M23 1024h177l327 -840l318 840h179l-440 -1101l-218 -537h-169l246 606zM228 1324q0 47 33 78.5t79 31.5q45 0 78 -31.5t33 -78.5q0 -44 -33 -76t-78 -32q-46 0 -79 32t-33 76zM602 1324q0 47 32.5 78.5t77.5 31.5q46 0 78 -31.5t32 -78.5q0 -44 -32 -76t-78 -32 q-44 0 -77 32t-33 76z" />
<glyph unicode="&#x152;" horiz-adv-x="2142" d="M125 768q0 160 62.5 306t168.5 251.5t252 168t306 62.5q135 0 261 -43v23h814v-159h-678v-530h591v-158h-591v-530h678v-159h-814v23q-126 -43 -261 -43q-160 0 -306 62.5t-252 168t-168.5 251.5t-62.5 306zM284 768q0 -171 84 -316t229.5 -229.5t318.5 -84.5 q130 0 259 54v1152q-129 54 -259 54q-173 0 -318.5 -84.5t-229.5 -229.5t-84 -316z" />
<glyph unicode="&#x153;" horiz-adv-x="2196" d="M115 512q0 145 71.5 267.5t194 193.5t267.5 71q144 0 264.5 -69t190.5 -187q70 117 191 186.5t265 69.5q219 0 373 -151t160 -371l-3 -33h-904q8 -148 115.5 -249.5t258.5 -101.5q115 0 208 61t135 162h169q-51 -167 -191.5 -274t-320.5 -107q-144 0 -265 69.5 t-191 186.5q-70 -118 -190.5 -187t-264.5 -69q-145 0 -267.5 71t-194 193.5t-71.5 267.5zM274 512q0 -155 109.5 -264.5t264.5 -109.5q154 0 263.5 109.5t109.5 264.5t-109.5 264.5t-263.5 109.5q-155 0 -264.5 -109.5t-109.5 -264.5zM1206 632h704q-37 112 -133 183 t-218 71q-121 0 -217.5 -70.5t-135.5 -183.5z" />
<glyph unicode="&#x178;" horiz-adv-x="1241" d="M3 1536h204l415 -637l415 637h202l-535 -806v-730h-164v727zM325 1836q0 47 33 78.5t80 31.5q45 0 77.5 -31.5t32.5 -78.5q0 -44 -33 -76t-77 -32q-46 0 -79.5 32t-33.5 76zM699 1836q0 47 32.5 78.5t77.5 31.5q46 0 78 -31.5t32 -78.5q0 -44 -32 -76t-78 -32 q-44 0 -77 32t-33 76z" />
<glyph unicode="&#x2c6;" horiz-adv-x="130" d="M118 1157l199 379h164l203 -379h-126l-159 274l-158 -274h-123z" />
<glyph unicode="&#x2dc;" horiz-adv-x="140" d="M64 1267q0 120 58.5 198.5t156.5 78.5q62 0 105 -30t82 -83q40 -56 90 -56q99 0 99 158h118q0 -120 -57.5 -198t-159.5 -78q-110 0 -187 113q-33 56 -85 56q-49 0 -75.5 -44.5t-26.5 -114.5h-118z" />
<glyph unicode="&#x2000;" horiz-adv-x="1024" />
<glyph unicode="&#x2001;" horiz-adv-x="2048" />
<glyph unicode="&#x2002;" horiz-adv-x="1024" />
<glyph unicode="&#x2003;" horiz-adv-x="2048" />
<glyph unicode="&#x2004;" horiz-adv-x="682" />
<glyph unicode="&#x2005;" horiz-adv-x="512" />
<glyph unicode="&#x2006;" horiz-adv-x="341" />
<glyph unicode="&#x2007;" horiz-adv-x="341" />
<glyph unicode="&#x2008;" horiz-adv-x="256" />
<glyph unicode="&#x2009;" horiz-adv-x="409" />
<glyph unicode="&#x200a;" horiz-adv-x="113" />
<glyph unicode="&#x2010;" horiz-adv-x="924" d="M102 456v153h717v-153h-717z" />
<glyph unicode="&#x2011;" horiz-adv-x="924" d="M102 456v153h717v-153h-717z" />
<glyph unicode="&#x2012;" horiz-adv-x="924" d="M102 456v153h717v-153h-717z" />
<glyph unicode="&#x2013;" horiz-adv-x="1231" d="M102 456v153h1024v-153h-1024z" />
<glyph unicode="&#x2014;" horiz-adv-x="2048" d="M0 456v153h2048v-153h-2048z" />
<glyph unicode="&#x2018;" horiz-adv-x="424" d="M44 940l232 616h116l-167 -616h-181z" />
<glyph unicode="&#x2019;" horiz-adv-x="337" d="M84 940l167 616h182l-233 -616h-116z" />
<glyph unicode="&#x201a;" horiz-adv-x="435" d="M46 -397l166 617h182l-233 -617h-115z" />
<glyph unicode="&#x201c;" horiz-adv-x="798" d="M59 940l233 616h115l-166 -616h-182zM420 940l233 616h115l-166 -616h-182z" />
<glyph unicode="&#x201d;" horiz-adv-x="808" d="M36 937l166 617h182l-233 -617h-115zM407 940l166 616h182l-233 -616h-115z" />
<glyph unicode="&#x201e;" horiz-adv-x="770" d="M44 -397l166 617h182l-233 -617h-115zM389 -397l167 617h181l-233 -617h-115z" />
<glyph unicode="&#x2022;" horiz-adv-x="1185" d="M243 676q0 142 104.5 246.5t246.5 104.5q140 0 244 -104.5t104 -246.5q0 -145 -103.5 -248t-244.5 -103q-143 0 -247 103t-104 248z" />
<glyph unicode="&#x2026;" horiz-adv-x="1551" d="M102 120q0 57 42.5 99t98.5 42q58 0 99.5 -41.5t41.5 -99.5t-41.5 -99t-99.5 -41q-56 0 -98.5 41.5t-42.5 98.5zM658 120q0 57 42.5 99t98.5 42q58 0 99.5 -41.5t41.5 -99.5t-41.5 -99t-99.5 -41q-56 0 -98.5 41.5t-42.5 98.5zM1226 120q0 57 42.5 99t98.5 42 q58 0 99.5 -41.5t41.5 -99.5t-41.5 -99t-99.5 -41q-56 0 -98.5 41.5t-42.5 98.5z" />
<glyph unicode="&#x202f;" horiz-adv-x="409" />
<glyph unicode="&#x2039;" horiz-adv-x="729" d="M123 571l310 376h138l-312 -376l312 -376h-138z" />
<glyph unicode="&#x203a;" horiz-adv-x="729" d="M161 195l310 376l-310 376h136l312 -376l-312 -376h-136z" />
<glyph unicode="&#x205f;" horiz-adv-x="512" />
<glyph unicode="&#x20ac;" horiz-adv-x="1600" d="M23 517l92 146h54q-8 53 -8 105q0 42 5 97h-143l102 144h72q77 242 284 394.5t469 152.5q222 0 420 -125l-52 -161q-163 123 -368 123q-195 0 -350.5 -106t-228.5 -278l863 -3l-146 -143l-755 2q-8 -53 -8 -97q0 -52 8 -105l791 -5l-136 -143l-612 2q74 -170 228 -272 t346 -102q120 0 233.5 47t198.5 130v-207q-97 -62 -210.5 -97.5t-221.5 -35.5q-261 0 -466 149t-282 388h-179z" />
<glyph unicode="&#x2122;" horiz-adv-x="1666" d="M100 1446v90h491v-90h-197v-629h-100v629h-194zM724 817v719h108l261 -387l259 387h107v-719h-97v565l-269 -404l-269 397v-558h-100z" />
<glyph unicode="&#x25fc;" horiz-adv-x="1024" d="M0 0v1024h1024v-1024h-1024z" />
</font>
</defs>
</svg>
