<?xml version="1.0" standalone="no"?>
<!DOCTYPE svg PUBLIC "-//W3C//DTD SVG 1.1//EN" "http://www.w3.org/Graphics/SVG/1.1/DTD/svg11.dtd" >
<svg xmlns="http://www.w3.org/2000/svg" xmlns:xlink="http://www.w3.org/1999/xlink" version="1.1">
<metadata></metadata>
<defs>
<font id="now_altlight" horiz-adv-x="1858" >
<font-face units-per-em="2048" ascent="1638" descent="-410" />
<missing-glyph horiz-adv-x="629" />
<glyph unicode="&#xfb01;" horiz-adv-x="1272" d="M87 906v118h172v594q0 109 80 187.5t191 78.5q77 0 128 -33v-90l-115 5q-69 0 -116.5 -46t-47.5 -117v-579h281v-118h-281v-906h-120v906h-172zM896 1313q0 40 28 67.5t67 27.5t66.5 -27.5t27.5 -67.5q0 -38 -28 -65t-66 -27q-39 0 -67 27t-28 65zM932 0v1024h118v-1024 h-118z" />
<glyph unicode="&#xfb02;" horiz-adv-x="1228" d="M87 906v118h172v594q0 109 80 187.5t191 78.5q77 0 128 -33v-90l-115 5q-69 0 -116.5 -46t-47.5 -117v-579h281v-118h-281v-906h-120v906h-172zM909 0v1884h120v-1884h-120z" />
<glyph horiz-adv-x="0" />
<glyph horiz-adv-x="682" />
<glyph unicode=" "  horiz-adv-x="629" />
<glyph unicode="&#x09;" horiz-adv-x="629" />
<glyph unicode="&#xa0;" horiz-adv-x="629" />
<glyph unicode="!" horiz-adv-x="616" d="M215 74q0 38 28.5 66.5t66.5 28.5q37 0 64.5 -28.5t27.5 -66.5t-27.5 -66t-64.5 -28q-38 0 -66.5 28t-28.5 66zM248 1720h121l-13 -1305h-97z" />
<glyph unicode="&#x22;" horiz-adv-x="855" d="M215 1556h113l-11 -680h-92zM525 1556h115l-10 -680h-95z" />
<glyph unicode="#" horiz-adv-x="1597" d="M166 366l11 95h289l77 509h-292l15 92h287l54 369h89l-51 -369h405l51 369h95l-54 -369h292l-16 -92h-289l-69 -509h287l-13 -95h-287l-56 -366h-92l53 366h-407l-51 -366h-92l51 366h-287zM561 461h404l72 509h-405z" />
<glyph unicode="$" horiz-adv-x="1136" d="M90 284l112 64q42 -111 142 -178.5t237 -67.5q146 0 244.5 76.5t98.5 208.5q0 65 -26 117.5t-70.5 88.5t-102 67t-121 57.5t-126.5 54.5t-120.5 64t-102 80t-70.5 108t-26 143q0 166 105.5 269.5t262.5 117.5v169h118v-172q102 -13 186.5 -62t138.5 -119l-97 -80 q-46 65 -123.5 104.5t-170.5 39.5q-124 0 -210.5 -67.5t-86.5 -191.5q0 -63 26 -114t70.5 -86.5t102 -65.5t121 -56.5t126.5 -54.5t120.5 -65t102 -82t70.5 -111.5t26 -147.5q0 -176 -113.5 -282.5t-288.5 -127.5v-164h-118v164q-152 13 -268.5 94.5t-168.5 207.5z" />
<glyph unicode="%" horiz-adv-x="1505" d="M148 1252q0 125 77.5 214.5t186.5 89.5q107 0 183 -89.5t76 -214.5t-76 -215t-183 -90q-109 0 -186.5 90t-77.5 215zM159 0l1060 1536h128l-1060 -1536h-128zM246 1252q0 -86 48.5 -147t117.5 -61q66 0 115 61.5t49 146.5t-49 146t-115 61q-69 0 -117.5 -60.5 t-48.5 -146.5zM835 284q0 125 77 215t184 90q109 0 185 -90t76 -215t-76 -214.5t-185 -89.5q-107 0 -184 89.5t-77 214.5zM932 284q0 -86 48 -146.5t116 -60.5t116 60.5t48 146.5t-48 147t-116 61t-116 -61t-48 -147z" />
<glyph unicode="&#x26;" horiz-adv-x="1384" d="M212 415q0 118 59 217t159 154q-94 59 -148 153.5t-54 207.5q0 168 115 278.5t279 110.5h348v-123h-330q-121 0 -206.5 -74.5t-85.5 -196.5q0 -130 90.5 -216t224.5 -86h341v274h117v-274h149v-118h-149v-297q0 -186 -122 -305.5t-318 -119.5q-198 0 -333.5 118 t-135.5 297zM328 417q0 -135 101 -222t249 -87q146 0 236 89t90 228v297h-369q-129 0 -218 -88t-89 -217z" />
<glyph unicode="'" horiz-adv-x="542" d="M215 1556h113l-11 -599h-92z" />
<glyph unicode="(" horiz-adv-x="798" d="M174 666q0 245 26 444t72 337.5t111 234.5t141 144t165 58v-87q-70 -12 -130 -58t-111.5 -135t-88 -217t-57 -311.5t-20.5 -409.5q0 -279 31 -492t87.5 -345t128.5 -202.5t160 -84.5v-87q-112 11 -203 85t-162 216t-110.5 374t-39.5 536z" />
<glyph unicode=")" horiz-adv-x="798" d="M108 -458q89 14 161.5 84.5t129 202.5t87.5 345t31 492q0 281 -31 495t-87.5 346.5t-129 203.5t-161.5 86v87q90 -10 166.5 -58t141.5 -144t111 -234.5t72 -337.5t26 -444q0 -305 -39 -536.5t-110.5 -373.5t-163 -216t-204.5 -85v87z" />
<glyph unicode="*" horiz-adv-x="721" d="M133 1254v77l184 -13l-105 151l70 39l79 -161l82 161l66 -39l-105 -151l185 13v-77l-185 13l105 -153l-66 -39l-82 161l-79 -161l-70 39l105 153z" />
<glyph unicode="+" horiz-adv-x="1699" d="M215 579v112h579v579h112v-579h579v-112h-579v-579h-112v579h-579z" />
<glyph unicode="," horiz-adv-x="435" d="M15 -338l272 599h138l-305 -599h-105z" />
<glyph unicode="-" horiz-adv-x="1013" d="M148 474v117h717v-117h-717z" />
<glyph unicode="." horiz-adv-x="527" d="M148 95q0 45 35 78.5t81 33.5t80.5 -33.5t34.5 -78.5q0 -47 -34.5 -81t-80.5 -34t-81 34t-35 81z" />
<glyph unicode="/" horiz-adv-x="1364" d="M-33 -614l1313 2498h118l-1311 -2498h-120z" />
<glyph unicode="0" horiz-adv-x="1438" d="M174 768q0 225 62 401.5t187 281.5t296 105q170 0 295 -105t188 -281.5t63 -401.5t-63 -401.5t-188 -281.5t-295 -105q-171 0 -296 105t-187 281.5t-62 401.5zM297 768q0 -193 47 -341.5t144 -236.5t231 -88t231 87.5t144.5 236.5t47.5 342t-47.5 342t-144.5 236.5 t-231 87.5t-231 -88t-144 -236.5t-47 -341.5z" />
<glyph unicode="1" horiz-adv-x="775" d="M120 1413v123h379v-1536h-123v1413h-256z" />
<glyph unicode="2" horiz-adv-x="1292" d="M72 0l652 691q154 166 204 250t50 173q0 149 -90 233.5t-230 86.5q-143 4 -237 -84t-96 -236h-133q2 199 136 322.5t335 119.5q122 -2 220 -50.5t159 -144t66 -222.5q4 -87 -22 -160.5t-86 -155t-183 -214.5l-464 -486h812v-123h-1093z" />
<glyph unicode="3" horiz-adv-x="1262" d="M154 425l128 3q0 -136 99.5 -231t238.5 -95q141 0 240.5 100.5t99.5 242.5q0 141 -98.5 234.5t-241.5 93.5h-333l507 640h-640v123h885l-512 -640h87q197 0 334 -131.5t137 -324.5q0 -125 -61.5 -230.5t-169 -167.5t-234.5 -62t-234.5 59.5t-169.5 162t-62 223.5z" />
<glyph unicode="4" horiz-adv-x="1269" d="M77 323l719 1213h151v-1091h169v-122h-169v-323h-123v323h-747zM271 445h553v948z" />
<glyph unicode="5" horiz-adv-x="1295" d="M125 182l16 146h13q83 -118 201 -172t244 -54q188 0 302.5 112t114.5 280q0 169 -114.5 281.5t-281.5 112.5q-89 0 -169 -33.5t-139 -94.5l-110 67l92 704h758v-123h-650l-67 -499q131 102 308 102q211 0 353.5 -147.5t142.5 -366.5q0 -222 -149 -369.5t-388 -147.5 q-139 0 -269.5 54t-207.5 148z" />
<glyph unicode="6" horiz-adv-x="1361" d="M156 471q-12 212 136 379l553 686h159l-466 -550q62 26 143 30q93 3 185 -31.5t166 -96.5t122.5 -155.5t53.5 -200.5q13 -215 -132 -374t-362 -173q-108 -7 -208.5 29t-175 101.5t-121.5 158.5t-53 197zM276 474q7 -111 66.5 -198t156.5 -132.5t210 -38.5 q174 11 282 133.5t97 291.5q-11 172 -135.5 281t-297.5 98q-172 -11 -281 -136.5t-98 -298.5z" />
<glyph unicode="7" horiz-adv-x="1208" d="M118 1413v123h1014v-72l-832 -1464h-149l819 1413h-852z" />
<glyph unicode="8" horiz-adv-x="1198" d="M125 438q0 139 77 250.5t205 163.5q-91 49 -144 135.5t-53 192.5q0 158 112 267t277 109t277 -109t112 -267q0 -106 -53 -192.5t-144 -135.5q128 -52 206 -163.5t78 -250.5q0 -192 -138 -325t-338 -133q-199 0 -336.5 133t-137.5 325zM248 445q0 -147 102.5 -251 t248.5 -104t248.5 104t102.5 251q0 146 -102.5 248.5t-248.5 102.5t-248.5 -102.5t-102.5 -248.5zM325 1165q0 -113 80.5 -192.5t193.5 -79.5q115 0 194.5 79t79.5 193q0 115 -79.5 194.5t-194.5 79.5q-114 0 -194 -79.5t-80 -194.5z" />
<glyph unicode="9" horiz-adv-x="1361" d="M156 1004q-13 215 133 374t364 173q144 9 269.5 -54t202 -178t83.5 -254q14 -206 -133 -379l-555 -686h-159l466 550q-62 -26 -143 -30q-93 -3 -185 31.5t-166.5 96.5t-123 155.5t-53.5 200.5zM276 1006q11 -172 135.5 -281t297.5 -98q172 11 281 136.5t98 298.5 q-7 111 -66.5 198t-156.5 132.5t-210 38.5q-174 -11 -282 -133.5t-97 -291.5z" />
<glyph unicode=":" horiz-adv-x="629" d="M220 74q0 37 28.5 66t66.5 29t66.5 -29t28.5 -66q0 -40 -28 -67t-67 -27t-67 27t-28 67zM220 950q0 38 28.5 66t66.5 28t66.5 -28t28.5 -66t-28.5 -66.5t-66.5 -28.5t-66.5 28.5t-28.5 66.5z" />
<glyph unicode=";" horiz-adv-x="673" d="M61 -338l272 599h138l-305 -599h-105zM246 950q0 38 27 66t65 28t66.5 -28t28.5 -66t-28.5 -66.5t-66.5 -28.5t-65 28t-27 67z" />
<glyph unicode="&#x3c;" horiz-adv-x="1559" d="M215 625v112l1129 566v-105l-1027 -517l1027 -520v-107z" />
<glyph unicode="=" horiz-adv-x="1536" d="M154 310v84h1228v-84h-1228zM154 691v85h1228v-85h-1228z" />
<glyph unicode="&#x3e;" horiz-adv-x="1559" d="M215 54v107l1027 520l-1027 517v105l1129 -566v-112z" />
<glyph unicode="?" horiz-adv-x="1218" d="M220 1362q10 167 129 275.5t294 108.5q184 0 303 -114t119 -291q0 -79 -20.5 -139t-53 -97t-72 -65.5t-78.5 -52t-71.5 -49t-53 -63.5t-20.5 -89v-366h-110v348q0 74 20.5 128t53 85.5t72.5 56.5t79.5 49t72 53.5t53 80.5t20.5 120q0 131 -88 215.5t-226 84.5 q-126 0 -214 -79t-99 -200h-110zM556 74q0 37 28 66t66 29t66.5 -29t28.5 -66q0 -40 -28 -67t-67 -27t-66.5 27t-27.5 67z" />
<glyph unicode="@" horiz-adv-x="1280" d="M154 563q0 115 41 219t110.5 179t166 119t204.5 44q164 0 276.5 -108.5t112.5 -265.5v-445h-85v84q-35 -46 -93.5 -76.5t-113.5 -30.5q-111 0 -187.5 74.5t-76.5 183.5q0 107 76.5 181.5t187.5 74.5q59 0 117.5 -32.5t89.5 -82.5v69q0 121 -88.5 205t-215.5 84 q-184 0 -312 -138t-128 -338q0 -100 39.5 -189.5t106.5 -153t159.5 -101t195.5 -37.5h328v-82h-328q-161 0 -295 74.5t-211 204t-77 284.5zM604 540q0 -78 54.5 -130t135.5 -52q70 0 120.5 38.5t65.5 100.5v87q-15 61 -65.5 99.5t-120.5 38.5q-81 0 -135.5 -52.5 t-54.5 -129.5z" />
<glyph unicode="A" horiz-adv-x="1272" d="M13 0l555 1536h136l556 -1536h-134l-130 371h-717l-131 -371h-135zM320 489h635l-318 901z" />
<glyph unicode="B" horiz-adv-x="1333" d="M200 0v1536h537q173 0 292.5 -115.5t119.5 -288.5q0 -120 -62.5 -213.5t-167.5 -140.5q124 -39 201.5 -140t77.5 -236q0 -171 -119 -286.5t-291 -115.5h-588zM323 123h450q127 0 214.5 84t87.5 208q0 123 -87.5 208.5t-214.5 85.5h-450v-586zM323 827h401q127 0 215 86.5 t88 210.5q0 123 -88.5 206t-214.5 83h-401v-586z" />
<glyph unicode="C" horiz-adv-x="1710" d="M141 768q0 160 62.5 306t168 251.5t251.5 168t306 62.5q217 0 398.5 -107t285.5 -289l-105 -59q-88 152 -242 242.5t-337 90.5q-136 0 -259 -52.5t-212 -141.5t-141.5 -212.5t-52.5 -259.5t52.5 -259.5t141.5 -212.5t212 -141.5t259 -52.5q183 0 337 90.5t242 242.5 l105 -59q-104 -182 -285.5 -289t-398.5 -107q-160 0 -306 62.5t-251.5 168t-168 251.5t-62.5 306z" />
<glyph unicode="D" horiz-adv-x="1507" d="M200 0v1536h399q157 0 299 -60.5t245 -163.5t163.5 -245t60.5 -299t-60.5 -299t-163.5 -245t-245 -163.5t-299 -60.5h-399zM323 123h273q133 0 253 49.5t206.5 135t137.5 205.5t51 255t-51 255t-137.5 205.5t-206.5 135t-253 49.5h-273v-1290z" />
<glyph unicode="E" horiz-adv-x="1192" d="M212 0v1536h820v-120h-697v-589h610v-118h-610v-589h697v-120h-820z" />
<glyph unicode="F" horiz-adv-x="1095" d="M212 0v1536h820v-120h-697v-589h610v-118h-610v-709h-123z" />
<glyph unicode="G" horiz-adv-x="1866" d="M146 768q0 160 62 306t167 251.5t251.5 168t307.5 62.5q216 0 398 -107.5t286 -288.5l-108 -59q-86 152 -239.5 242.5t-336.5 90.5q-136 0 -259 -52.5t-212 -141.5t-141.5 -212.5t-52.5 -259.5t52.5 -259.5t141.5 -212.5t212 -141.5t259 -52.5q167 0 311.5 77t237 210.5 t112.5 296.5h-663v118h791v-36q0 -160 -62.5 -306t-168.5 -251.5t-252 -168t-306 -62.5q-161 0 -307.5 62.5t-251.5 168t-167 251.5t-62 306z" />
<glyph unicode="H" horiz-adv-x="1543" d="M200 0v1536h123v-707h898v707h123v-1536h-123v707h-898v-707h-123z" />
<glyph unicode="I" horiz-adv-x="545" d="M212 0v1536h123v-1536h-123z" />
<glyph unicode="J" horiz-adv-x="1018" d="M97 317l126 29q11 -107 81 -175.5t170 -68.5q110 0 183 80t73 202v1029h-569v123h691v-1162q0 -174 -106 -284t-272 -110q-153 0 -255 91.5t-122 245.5z" />
<glyph unicode="K" horiz-adv-x="1254" d="M200 0v1536h123v-648h102l648 648h169l-710 -707l735 -829h-171l-668 771h-105v-771h-123z" />
<glyph unicode="L" horiz-adv-x="936" d="M200 0v1536h123v-1413h586v-123h-709z" />
<glyph unicode="M" horiz-adv-x="1884" d="M200 0v1536h128l614 -1390l617 1390h125v-1536h-120v1290l-573 -1290h-100l-568 1285v-1285h-123z" />
<glyph unicode="N" horiz-adv-x="1623" d="M200 0v1536h107l993 -1318v1318h123v-1536h-107l-993 1318v-1318h-123z" />
<glyph unicode="O" d="M141 768q0 160 62.5 306t168 251.5t251.5 168t306 62.5t306 -62.5t252 -168t168.5 -251.5t62.5 -306t-62.5 -306t-168.5 -251.5t-252 -168t-306 -62.5t-306 62.5t-251.5 168t-168 251.5t-62.5 306zM264 768q0 -136 52.5 -259.5t141.5 -212.5t212 -141.5t259 -52.5 q182 0 335 89t242 242t89 335t-89 335t-242 242t-335 89q-136 0 -259 -52.5t-212 -141.5t-141.5 -212.5t-52.5 -259.5z" />
<glyph unicode="P" horiz-adv-x="1200" d="M200 0v1536h524q175 0 297.5 -122.5t122.5 -297.5q0 -174 -122.5 -295.5t-297.5 -121.5h-401v-699h-123zM323 817h391q132 0 219.5 82.5t87.5 216.5q0 129 -88.5 214.5t-218.5 85.5h-391v-599z" />
<glyph unicode="Q" horiz-adv-x="1866" d="M141 768q0 160 62.5 306t168 251.5t251.5 168t306 62.5t306 -62.5t252 -168t168.5 -251.5t62.5 -306q0 -226 -118.5 -415t-314.5 -289l187 51h276v-115h-640q-86 -20 -179 -20q-160 0 -306 62.5t-251.5 168t-168 251.5t-62.5 306zM264 768q0 -136 52.5 -259.5 t141.5 -212.5t212 -141.5t259 -52.5q182 0 335 89t242 242t89 335t-89 335t-242 242t-335 89q-136 0 -259 -52.5t-212 -141.5t-141.5 -212.5t-52.5 -259.5z" />
<glyph unicode="R" horiz-adv-x="1274" d="M200 0v1536h524q175 0 297.5 -122.5t122.5 -297.5q0 -158 -104 -274t-259 -133l458 -709h-141l-443 704h-332v-704h-123zM323 822h394q129 0 216.5 84t87.5 210q0 128 -87 212.5t-217 84.5h-394v-591z" />
<glyph unicode="S" horiz-adv-x="1136" d="M90 284l112 64q42 -111 142 -178.5t237 -67.5q146 0 244.5 76.5t98.5 208.5q0 65 -26 117.5t-70.5 88.5t-102 67t-121 57.5t-126.5 54.5t-120.5 64t-102 80t-70.5 108t-26 143q0 120 59 210t152.5 134.5t205.5 44.5q124 0 228 -51.5t166 -134.5l-97 -80 q-46 65 -123.5 104.5t-170.5 39.5q-124 0 -210.5 -67.5t-86.5 -191.5q0 -63 26 -114t70.5 -86.5t102 -65.5t121 -56.5t126.5 -54.5t120.5 -65t102 -82t70.5 -111.5t26 -147.5q0 -98 -38 -177.5t-103 -130t-149 -77.5t-178 -27q-169 0 -301 84t-188 220z" />
<glyph unicode="T" horiz-adv-x="1062" d="M36 1413v123h988v-123h-433v-1413h-123v1413h-432z" />
<glyph unicode="U" horiz-adv-x="1507" d="M192 507v1029h123v-1011q0 -180 126 -301.5t312 -121.5q188 0 314 121t126 302v1011h123v-1029q0 -225 -160.5 -376t-402.5 -151q-158 0 -286.5 68.5t-201.5 189.5t-73 269z" />
<glyph unicode="V" horiz-adv-x="1272" d="M13 1536h138l486 -1380l487 1380h136l-556 -1536h-136z" />
<glyph unicode="W" horiz-adv-x="2106" d="M3 1536h133l425 -1334l407 1334h169l409 -1334l428 1334h128l-489 -1536h-131l-430 1398l-427 -1398h-131z" />
<glyph unicode="X" horiz-adv-x="1208" d="M15 0l523 776l-512 760h146l432 -658l433 658h148l-512 -760l520 -776h-149l-440 673l-438 -673h-151z" />
<glyph unicode="Y" horiz-adv-x="1223" d="M15 1536h154l445 -681l446 681h148l-535 -809v-727h-123v727z" />
<glyph unicode="Z" horiz-adv-x="1372" d="M108 0l898 1413h-850v123h1073l-899 -1413h937v-123h-1159z" />
<glyph unicode="[" horiz-adv-x="693" d="M200 -512v2396h371v-95h-266v-2206h266v-95h-371z" />
<glyph unicode="\" horiz-adv-x="1364" d="M-33 1884h120l1308 -2493h-115z" />
<glyph unicode="]" horiz-adv-x="693" d="M125 -417h264v2206h-264v95h369v-2396h-369v95z" />
<glyph unicode="^" horiz-adv-x="1436" d="M92 404l568 1132h113l568 -1132h-105l-519 1030l-520 -1030h-105z" />
<glyph unicode="_" horiz-adv-x="1454" d="M113 0h1228v-118h-1228v118z" />
<glyph unicode="`" horiz-adv-x="115" d="M77 1536h148l218 -376h-90z" />
<glyph unicode="a" horiz-adv-x="1200" d="M146 264q0 131 87.5 207.5t237.5 76.5h410v118q0 118 -87 188t-221 70t-221.5 -70t-87.5 -188h-118q0 167 122 272.5t305 105.5q181 0 304.5 -106t123.5 -272v-428q0 -141 118 -141h53v-97q-28 -20 -69 -20q-88 0 -143.5 51t-73.5 138q-56 -89 -162.5 -139t-239.5 -50 q-157 0 -247.5 76.5t-90.5 207.5zM276 266q0 -83 62 -132.5t169 -49.5q129 0 230.5 65.5t143.5 173.5v122h-389q-99 0 -157.5 -49t-58.5 -130z" />
<glyph unicode="b" horiz-adv-x="1390" d="M200 0v1884h120v-1034q74 90 182 142t230 52q145 0 267.5 -71t194 -193.5t71.5 -267.5t-71.5 -267.5t-194 -193.5t-267.5 -71q-122 0 -230 52t-182 142v-174h-120zM320 512q0 -172 120 -292t292 -120t293.5 120t121.5 292t-121.5 292t-293.5 120t-292 -120t-120 -292z " />
<glyph unicode="c" horiz-adv-x="1244" d="M125 512q0 145 71.5 267.5t194 193.5t267.5 71q172 0 309.5 -100t192.5 -258h-126q-51 108 -152.5 173t-223.5 65q-172 0 -293.5 -119t-121.5 -293t121.5 -293t293.5 -119q122 0 223.5 65t152.5 173h126q-55 -158 -192.5 -258t-309.5 -100q-145 0 -267.5 71t-194 193.5 t-71.5 267.5z" />
<glyph unicode="d" horiz-adv-x="1390" d="M125 512q0 145 71.5 267.5t194 193.5t267.5 71q122 0 230 -52t182 -142v1034h120v-1884h-120v174q-74 -90 -182 -142t-230 -52q-145 0 -267.5 71t-194 193.5t-71.5 267.5zM243 512q0 -172 121 -292t294 -120q171 0 291.5 120t120.5 292t-120.5 292t-291.5 120 q-173 0 -294 -120t-121 -292z" />
<glyph unicode="e" horiz-adv-x="1303" d="M125 512q0 145 71.5 267.5t194 193.5t267.5 71q142 0 262 -68t191.5 -186.5t76.5 -262.5v-28h-945q4 -167 125 -283t290 -116q129 0 233.5 71t150.5 187h125q-51 -167 -190.5 -272.5t-318.5 -105.5q-145 0 -267.5 71t-194 193.5t-71.5 267.5zM256 609h801 q-33 137 -144.5 226t-254.5 89q-147 0 -258 -88t-144 -227z" />
<glyph unicode="f" horiz-adv-x="709" d="M87 906v118h172v594q0 109 80 187.5t191 78.5q77 0 128 -33v-90l-115 5q-69 0 -116.5 -46t-47.5 -117v-579h281v-118h-281v-906h-120v906h-172z" />
<glyph unicode="g" horiz-adv-x="1390" d="M125 512q0 146 71.5 268.5t194 193t267.5 70.5q123 0 230.5 -51.5t181.5 -142.5v174h120v-1111q0 -145 -71 -267.5t-193.5 -194t-267.5 -71.5q-163 0 -296.5 90t-195.5 238l110 51q46 -116 150 -187t232 -71q171 0 291.5 120.5t120.5 291.5v261q-74 -90 -182 -142 t-230 -52q-145 0 -267.5 71t-194 193.5t-71.5 267.5zM243 512q0 -171 121.5 -291.5t293.5 -120.5q171 0 291.5 120.5t120.5 291.5q0 172 -120.5 292t-291.5 120q-173 0 -294 -120t-121 -292z" />
<glyph unicode="h" horiz-adv-x="1139" d="M200 0v1884h120v-942q107 102 259 102q156 0 266 -112.5t110 -273.5v-658h-118v658q0 113 -76.5 191t-184.5 78q-106 0 -181 -78t-75 -191v-658h-120z" />
<glyph unicode="i" horiz-adv-x="563" d="M187 1313q0 40 28 67.5t67 27.5t66.5 -27.5t27.5 -67.5q0 -38 -28 -65t-66 -27q-39 0 -67 27t-28 65zM223 0v1024h117v-1024h-117z" />
<glyph unicode="j" horiz-adv-x="570" d="M-49 -492l116 -5q69 0 116 46t47 118v1357h118v-1372q0 -109 -79.5 -187.5t-189.5 -78.5q-77 0 -128 33v89zM195 1313q0 40 28 67.5t66 27.5q39 0 67 -27.5t28 -67.5q0 -38 -28 -65t-67 -27q-37 0 -65.5 27t-28.5 65z" />
<glyph unicode="k" horiz-adv-x="1031" d="M215 0v1884h118v-1884h-118zM343 573l486 451h164l-491 -453l535 -571h-167z" />
<glyph unicode="l" horiz-adv-x="519" d="M200 0v1884h120v-1884h-120z" />
<glyph unicode="m" horiz-adv-x="1730" d="M200 0v1024h120v-113q46 62 114.5 97.5t144.5 35.5q88 0 167 -46t130 -125q49 78 131 124.5t176 46.5q152 0 257.5 -109.5t105.5 -268.5v-666h-118v666q0 110 -72 184t-176 74q-103 0 -174.5 -74t-71.5 -184v-666h-120v666q0 110 -72 184t-176 74t-175 -74t-71 -184v-666 h-120z" />
<glyph unicode="n" horiz-adv-x="1159" d="M200 0v1024h120v-110q52 62 124.5 96t154.5 34q99 0 185.5 -51t138.5 -140.5t52 -194.5v-658h-117v658q0 111 -79 190t-190 79t-190 -79t-79 -190v-658h-120z" />
<glyph unicode="o" horiz-adv-x="1313" d="M125 512q0 145 71.5 267.5t194 193.5t267.5 71q220 0 376 -156t156 -376t-156 -376t-376 -156q-145 0 -267.5 71t-194 193.5t-71.5 267.5zM243 512q0 -172 121 -292t294 -120q171 0 291.5 120t120.5 292t-120.5 292t-291.5 120q-173 0 -294 -120t-121 -292z" />
<glyph unicode="p" horiz-adv-x="1390" d="M200 -614v1638h120v-174q74 90 182 142t230 52q145 0 267.5 -71t194 -193.5t71.5 -267.5t-71.5 -267.5t-194 -193.5t-267.5 -71q-122 0 -230 52t-182 142v-788h-120zM320 512q0 -172 120 -292t292 -120t293.5 120t121.5 292t-121.5 292t-293.5 120t-292 -120t-120 -292z " />
<glyph unicode="q" horiz-adv-x="1390" d="M125 512q0 145 71.5 267.5t194 193.5t267.5 71q122 0 230 -52t182 -142v174h120v-1357q0 -72 47.5 -118t116.5 -46h92v-97q-48 -20 -105 -20q-111 0 -191 78.5t-80 187.5v522q-74 -90 -182 -142t-230 -52q-145 0 -267.5 71t-194 193.5t-71.5 267.5zM243 512 q0 -172 121 -292t294 -120q171 0 291.5 120t120.5 292t-120.5 292t-291.5 120q-173 0 -294 -120t-121 -292z" />
<glyph unicode="r" horiz-adv-x="768" d="M200 0v1024h120v-159q57 83 147 131t199 48q48 0 84 -7v-123q-29 10 -84 10q-145 0 -245.5 -97.5t-100.5 -240.5v-586h-120z" />
<glyph unicode="s" horiz-adv-x="855" d="M97 195l115 46q15 -61 83 -102.5t150 -41.5q83 0 140.5 45.5t57.5 123.5q0 30 -11 55t-27 42.5t-46 35.5t-56.5 30t-69.5 29q-69 26 -117 52t-89 61.5t-61 83.5t-20 108q0 132 87 206.5t202 74.5q90 0 170 -45t112 -108l-103 -56q-53 89 -174 89q-75 0 -124.5 -39 t-49.5 -117q0 -32 11 -58t25.5 -43.5t46.5 -36t56 -29.5t71 -30q52 -21 83.5 -36t75 -43t68 -57t42.5 -73.5t18 -97.5q0 -123 -92.5 -203.5t-225.5 -80.5q-118 0 -217.5 62t-130.5 153z" />
<glyph unicode="t" horiz-adv-x="734" d="M67 906v118h171v445h120v-445h282v-118h-282v-645q0 -72 47.5 -118t116.5 -46h115v-84q-51 -33 -128 -33q-111 0 -191 78.5t-80 187.5v660h-171z" />
<glyph unicode="u" horiz-adv-x="1082" d="M166 371v653h118v-640q0 -125 73.5 -204.5t182.5 -79.5q112 0 185.5 79t73.5 205v640h117v-653q0 -172 -105.5 -281.5t-270.5 -109.5t-269.5 109t-104.5 282z" />
<glyph unicode="v" horiz-adv-x="1008" d="M36 1024h128l340 -881l343 881h126l-410 -1024h-118z" />
<glyph unicode="w" horiz-adv-x="1628" d="M36 1024h133l292 -883l297 883h115l297 -883l294 883h128l-350 -1024h-134l-291 860l-295 -860h-133z" />
<glyph unicode="x" horiz-adv-x="1067" d="M36 0l425 512l-425 512h146l353 -425l351 425h146l-425 -512l425 -512h-146l-351 425l-353 -425h-146z" />
<glyph unicode="y" horiz-adv-x="1029" d="M36 1024h133l348 -883l341 883h135l-658 -1638h-128l246 606z" />
<glyph unicode="z" horiz-adv-x="1075" d="M97 0l645 904h-609v120h837l-647 -904h655v-120h-881z" />
<glyph unicode="{" horiz-adv-x="652" d="M133 627v95q42 21 70.5 48t45 55.5t25 70.5t11 80t2.5 97v555q0 110 53.5 183t135.5 73h77v-95q-94 0 -131.5 -40.5t-37.5 -140.5v-566q0 -63 -5 -107.5t-19.5 -94.5t-46 -91t-80.5 -73q49 -33 80.5 -74.5t46 -91.5t19.5 -95t5 -108v-573q0 -91 39 -134t130 -43v-95h-77 q-82 0 -135.5 74t-53.5 182v558q0 152 -28.5 227.5t-125.5 123.5z" />
<glyph unicode="|" horiz-adv-x="614" d="M264 -307v1843h84v-1843h-84z" />
<glyph unicode="}" horiz-adv-x="652" d="M97 -443q91 0 130 43t39 134v573q0 63 5 108t19.5 95t46 91.5t80.5 74.5q-49 32 -80.5 73t-46 91t-19.5 94.5t-5 107.5v566q0 100 -37.5 140.5t-131.5 40.5v95h77q82 0 137 -73t55 -183v-555q0 -75 4 -120t19 -92t47 -80t84 -59v-95q-42 -20 -70 -46t-45 -53.5t-25.5 -69 t-11 -81t-2.5 -101.5v-558q0 -108 -55 -182t-137 -74h-77v95z" />
<glyph unicode="~" horiz-adv-x="1223" d="M118 397q-4 143 75.5 234t203.5 91q76 0 134 -38.5t117 -112.5q47 -56 84.5 -83t91.5 -27q83 0 137.5 65.5t52.5 167.5h89q6 -138 -72 -230.5t-199 -92.5q-45 0 -85 13t-73 38.5t-53.5 46.5t-47.5 53q-50 57 -87.5 83.5t-88.5 26.5q-84 0 -137 -67t-53 -168h-89z" />
<glyph unicode="&#xa1;" horiz-adv-x="616" d="M215 929q0 38 28.5 66.5t66.5 28.5q37 0 64.5 -28.5t27.5 -66.5t-27.5 -66t-64.5 -28q-38 0 -66.5 28t-28.5 66zM248 -614l11 1223h97l13 -1223h-121z" />
<glyph unicode="&#xa2;" horiz-adv-x="1157" d="M141 717q0 205 139 356t345 174v189h82v-187q161 -8 276 -94v-126q-124 113 -297 113q-178 0 -301.5 -124t-123.5 -301t123.5 -301t301.5 -124q174 0 297 110v-123q-114 -87 -276 -95v-184h-82v187q-206 23 -345 174t-139 356z" />
<glyph unicode="&#xa3;" horiz-adv-x="1262" d="M105 712v87h164v307q0 199 120.5 324.5t314.5 125.5q133 0 247.5 -81.5t156.5 -207.5l-92 -38q-28 99 -118 164.5t-194 65.5q-153 0 -246.5 -97.5t-93.5 -255.5v-307h381v-87h-381v-620h778v-92h-873v712h-164z" />
<glyph unicode="&#xa4;" horiz-adv-x="1239" d="M182 376l102 100q-96 116 -96 268t96 265l-100 99l67 72l102 -102q115 96 266.5 96t268.5 -96l100 102l69 -69l-100 -100q94 -116 94 -267.5t-94 -267.5l100 -100l-66 -71l-103 102q-117 -96 -268.5 -96t-268.5 96l-103 -102zM285 741.5q0 -138.5 96 -234.5 q100 -99 238.5 -99t238.5 99q96 98 95.5 236.5t-98.5 236.5q-98 96 -236.5 96t-237.5 -98q-96 -98 -96 -236.5z" />
<glyph unicode="&#xa5;" horiz-adv-x="1395" d="M113 1536h117l466 -709l466 709h118l-530 -799v-38h440v-79h-440v-226h440v-79h-440v-315h-107v315h-436v79h436v226h-436v79h436v38z" />
<glyph unicode="&#xa6;" horiz-adv-x="614" d="M264 -307v737h84v-737h-84zM264 799v737h84v-737h-84z" />
<glyph unicode="&#xa7;" horiz-adv-x="1292" d="M166 233l82 43q40 -80 150.5 -133t261.5 -53q157 0 268 59t111 163q0 49 -27.5 87.5t-74 65t-106.5 49t-126.5 42t-132.5 40.5t-126 48.5t-106.5 61.5t-74 84.5t-27.5 113.5q0 109 85 179q-85 77 -85 179q0 93 62 161.5t155.5 100.5t202.5 32q120 0 224.5 -38.5 t167.5 -101.5l-67 -54q-51 51 -135 80.5t-185 29.5q-85 0 -158 -22t-121.5 -70.5t-48.5 -114.5q0 -49 27.5 -87.5t74 -65t106.5 -49t126.5 -42t133 -40.5t126.5 -48.5t106.5 -61.5t74 -84.5t27.5 -113.5q0 -101 -85 -181q85 -73 85 -180q0 -94 -68.5 -166t-176.5 -107.5 t-234 -35.5q-173 0 -306.5 65t-185.5 165zM335 906q0 -62 42.5 -108.5t117 -77.5t153 -55t173 -55.5t154.5 -64.5q64 48 64 131q0 61 -43 106.5t-117.5 76t-153.5 54t-173.5 55t-154.5 64.5q-62 -50 -62 -126z" />
<glyph unicode="&#xa8;" horiz-adv-x="115" d="M156 1313q0 40 28 67.5t67 27.5t67 -27.5t28 -67.5q0 -38 -28 -65t-67 -27t-67 27t-28 65zM507 1313q0 40 28 67.5t67 27.5t66.5 -27.5t27.5 -67.5q0 -38 -28 -65t-66 -27q-39 0 -67 27t-28 65z" />
<glyph unicode="&#xa9;" d="M141 768q0 160 62.5 306t168 251.5t251.5 168t306 62.5t306 -62.5t252 -168t168.5 -251.5t62.5 -306t-62.5 -306t-168.5 -251.5t-252 -168t-306 -62.5t-306 62.5t-251.5 168t-168 251.5t-62.5 306zM218 768q0 -145 56 -277t151 -227t227 -151.5t277 -56.5q146 0 278 56.5 t227 151.5t151 227t56 277t-56 277t-151 227t-227 151.5t-278 56.5q-145 0 -277 -56.5t-227 -151.5t-151 -227t-56 -277zM484 765q0 192 135.5 328t327.5 136q152 0 272 -87.5t166 -225.5h-108q-45 94 -134 151t-196 57q-149 0 -255 -104.5t-106 -254.5q0 -152 106 -256.5 t255 -104.5q107 0 196 57t134 151h108q-47 -137 -167 -224.5t-271 -87.5q-192 0 -327.5 135.5t-135.5 329.5z" />
<glyph unicode="&#xaa;" horiz-adv-x="903" d="M102 1229q0 131 92 224t221 93q88 0 159 -44t110 -117v151h71v-614h-71v148q-39 -74 -110 -117.5t-159 -43.5q-130 0 -221.5 93t-91.5 227zM174 1229q0 -107 74 -181.5t180 -74.5t181 74.5t75 181.5q0 104 -75 177.5t-181 73.5t-180 -73.5t-74 -177.5z" />
<glyph unicode="&#xab;" horiz-adv-x="1277" d="M259 571l309 376h110l-312 -376l312 -376h-110zM599 571l312 376h110l-309 -376l309 -376h-110z" />
<glyph unicode="&#xac;" horiz-adv-x="1633" d="M215 776v94h1203v-619h-92v525h-1111z" />
<glyph unicode="&#xad;" horiz-adv-x="1075" d="M148 474v117h717v-117h-717z" />
<glyph unicode="&#xae;" d="M141 768q0 160 62.5 306t168 251.5t251.5 168t306 62.5t306 -62.5t252 -168t168.5 -251.5t62.5 -306t-62.5 -306t-168.5 -251.5t-252 -168t-306 -62.5t-306 62.5t-251.5 168t-168 251.5t-62.5 306zM218 768q0 -145 56 -277t151 -227t227 -151.5t277 -56.5q146 0 278 56.5 t227 151.5t151 227t56 277t-56 277t-151 227t-227 151.5t-278 56.5q-145 0 -277 -56.5t-227 -151.5t-151 -227t-56 -277zM724 366v804h256q96 0 162 -65.5t66 -159.5q0 -78 -48 -138t-123 -77l197 -364h-82l-195 356h-161v-356h-72zM796 794h184q63 0 108.5 44.5t45.5 106.5 q0 63 -45.5 107t-108.5 44h-184v-302z" />
<glyph unicode="&#xaf;" horiz-adv-x="184" d="M141 1247v87h537v-87h-537z" />
<glyph unicode="&#xb0;" horiz-adv-x="1059" d="M256 1283q0 113 80.5 193t193.5 80t193.5 -80t80.5 -193t-80.5 -193.5t-193.5 -80.5t-193.5 80.5t-80.5 193.5zM328 1283q0 -85 58.5 -144t143.5 -59t143.5 59t58.5 144t-58.5 143.5t-143.5 58.5t-143.5 -58.5t-58.5 -143.5z" />
<glyph unicode="&#xb1;" horiz-adv-x="1674" d="M133 0v97h1408v-97h-1408zM133 763v105h650v368h108v-368h650v-105h-650v-369h-108v369h-650z" />
<glyph unicode="&#xb2;" horiz-adv-x="788" d="M110 806l315 333q75 81 99 121t24 84q0 70 -43 111t-111 43t-113.5 -40.5t-47.5 -113.5h-64q2 95 66.5 154.5t161.5 57.5q89 0 150 -54.5t65 -147.5q2 -61 -26.5 -111.5t-114.5 -141.5l-223 -236h389v-59h-527z" />
<glyph unicode="&#xb3;" horiz-adv-x="752" d="M151 998h61q0 -65 48 -110.5t116 -45.5t116 49t48 118q0 68 -48 113t-116 45h-161l243 308h-307v58h428l-249 -307h44q94 0 159.5 -63.5t65.5 -156.5q0 -92 -65.5 -157.5t-157.5 -65.5q-93 0 -159 63t-66 152z" />
<glyph unicode="&#xb4;" horiz-adv-x="115" d="M13 1160l217 376h149l-277 -376h-89z" />
<glyph unicode="&#xb5;" horiz-adv-x="1216" d="M195 -512v1536h117v-630q0 -127 90.5 -217t217.5 -90q129 0 220.5 90t91.5 217v630h118v-1024h-118v169q-55 -87 -145 -138t-196 -51q-89 0 -168.5 37t-133.5 103v-632h-94z" />
<glyph unicode="&#xb6;" horiz-adv-x="1290" d="M236 1193q0 167 96 255t267 88h151v-1843h-74v1157h-77q-171 0 -267 89t-96 254zM940 -307v1843h74v-1843h-74z" />
<glyph unicode="&#xb7;" horiz-adv-x="591" d="M215 737q0 33 23 56.5t56 23.5t57.5 -23.5t24.5 -56.5q0 -34 -24 -56.5t-58 -22.5q-33 0 -56 22.5t-23 56.5z" />
<glyph unicode="&#xb8;" horiz-adv-x="156" d="M92 -410l69 34q25 -33 74 -56.5t93 -23.5q52 0 88.5 37t36.5 91q0 77 -62.5 108t-154.5 0l-64 43l87 177h76l-66 -143q109 23 185 -31t76 -154q0 -85 -58.5 -144.5t-143.5 -59.5q-68 0 -136.5 35.5t-99.5 86.5z" />
<glyph unicode="&#xb9;" horiz-adv-x="588" d="M120 1472v64h190v-768h-69v704h-121z" />
<glyph unicode="&#xba;" horiz-adv-x="857" d="M102 1229q0 131 96 224t230 93q136 0 231.5 -93t95.5 -224q0 -134 -95 -227t-232 -93q-135 0 -230.5 93t-95.5 227zM174 1229q0 -107 74 -181.5t180 -74.5t181 74.5t75 181.5q0 104 -75 177.5t-181 73.5t-180 -73.5t-74 -177.5z" />
<glyph unicode="&#xbb;" horiz-adv-x="1277" d="M256 195l310 376l-310 376h108l312 -376l-312 -376h-108zM596 195l313 376l-313 376h113l310 -376l-310 -376h-113z" />
<glyph unicode="&#xbc;" horiz-adv-x="2155" d="M120 1454v82h254v-1024h-82v942h-172zM399 -5l1070 1536h98l-1073 -1536h-95zM1308 215l479 809h102v-727h113v-82h-113v-215h-82v215h-499zM1436 297h371v635z" />
<glyph unicode="&#xbd;" horiz-adv-x="2214" d="M120 1454v82h254v-1024h-82v942h-172zM371 0l1070 1536h98l-1073 -1536h-95zM1359 0l436 461q103 110 136 165.5t33 115.5q0 100 -61 156.5t-155 58.5t-157 -57.5t-63 -157.5h-89q2 133 91.5 216t223.5 81q123 -2 207 -77t90 -202q4 -84 -35.5 -152.5t-159.5 -200.5 l-310 -325h540v-82h-727z" />
<glyph unicode="&#xbe;" horiz-adv-x="2196" d="M154 801h84q0 -90 66 -152.5t159 -62.5q95 0 161.5 67t66.5 161q0 93 -66 155.5t-162 62.5h-220l336 427h-425v82h591l-341 -427h57q131 0 223 -87t92 -215q0 -127 -91.5 -217.5t-221.5 -90.5q-129 0 -219 87t-90 210zM507 -5l1070 1536h97l-1072 -1536h-95zM1349 215 l479 809h102v-727h113v-82h-113v-215h-82v215h-499zM1477 297h371v635z" />
<glyph unicode="&#xbf;" horiz-adv-x="1231" d="M154 -207q0 78 20 138t52.5 96.5t71.5 65t78 52t71.5 49.5t52.5 64.5t20 89.5v261h110v-243q0 -74 -20.5 -128.5t-53 -86.5t-71.5 -57t-78.5 -49t-72 -53.5t-53 -79.5t-20.5 -119q0 -134 88.5 -218t226.5 -84q126 0 213.5 79t98.5 202h110q-10 -169 -128 -277.5 t-294 -108.5q-185 0 -303.5 114.5t-118.5 292.5zM474 957q0 38 28 65.5t66 27.5t66.5 -27.5t28.5 -65.5q0 -40 -28 -67t-67 -27t-66.5 27t-27.5 67z" />
<glyph unicode="&#xc0;" horiz-adv-x="1272" d="M13 0l555 1536h136l556 -1536h-134l-130 371h-717l-131 -371h-135zM320 489h635l-318 901zM325 2048h149l217 -376h-89z" />
<glyph unicode="&#xc1;" horiz-adv-x="1272" d="M13 0l555 1536h136l556 -1536h-134l-130 371h-717l-131 -371h-135zM320 489h635l-318 901zM584 1672l217 376h149l-277 -376h-89z" />
<glyph unicode="&#xc2;" horiz-adv-x="1272" d="M13 0l555 1536h136l556 -1536h-134l-130 371h-717l-131 -371h-135zM320 489h635l-318 901zM374 1672l199 376h126l200 -376h-103l-159 289l-161 -289h-102z" />
<glyph unicode="&#xc3;" horiz-adv-x="1272" d="M13 0l555 1536h136l556 -1536h-134l-130 371h-717l-131 -371h-135zM289 1738q0 111 55.5 182.5t147.5 71.5q103 0 181 -108q21 -33 45 -49.5t60 -16.5q52 0 82.5 42.5t30.5 118.5h92q0 -110 -55.5 -182t-149.5 -72q-112 0 -182 108q-42 67 -102 67q-53 0 -83 -45.5 t-30 -116.5h-92zM320 489h635l-318 901z" />
<glyph unicode="&#xc4;" horiz-adv-x="1272" d="M13 0l555 1536h136l556 -1536h-134l-130 371h-717l-131 -371h-135zM320 489h635l-318 901zM366 1825q0 40 28 67.5t67 27.5t67 -27.5t28 -67.5q0 -38 -28 -65t-67 -27t-67 27t-28 65zM717 1825q0 40 28 67.5t67 27.5t66.5 -27.5t27.5 -67.5q0 -38 -28 -65t-66 -27 q-39 0 -67 27t-28 65z" />
<glyph unicode="&#xc5;" horiz-adv-x="1272" d="M13 0l537 1487q-51 25 -81.5 74t-30.5 106q0 83 58 141t141 58t141.5 -58.5t58.5 -140.5q0 -58 -31.5 -107.5t-83.5 -72.5l538 -1487h-134l-130 371h-717l-131 -371h-135zM320 489h635l-318 901zM512 1667q0 -54 35.5 -91t89.5 -37t91 37t37 91t-37 92t-91 38 t-89.5 -37.5t-35.5 -92.5z" />
<glyph unicode="&#xc6;" horiz-adv-x="1784" d="M13 0l617 1536h993v-123h-699v-584h612v-122h-612v-584h699v-123h-819v376h-502l-148 -376h-141zM348 494h456v934h-85z" />
<glyph unicode="&#xc7;" horiz-adv-x="1710" d="M141 768q0 160 62.5 306t168 251.5t251.5 168t306 62.5q217 0 398.5 -107t285.5 -289l-105 -59q-88 152 -242 242.5t-337 90.5q-136 0 -259 -52.5t-212 -141.5t-141.5 -212.5t-52.5 -259.5t52.5 -259.5t141.5 -212.5t212 -141.5t259 -52.5q183 0 337 90.5t242 242.5 l105 -59q-100 -175 -273 -282t-383 -114l-56 -123q109 23 185 -31t76 -154q0 -85 -58.5 -144.5t-143.5 -59.5q-68 0 -136.5 35.5t-99.5 86.5l70 34q25 -33 73.5 -56.5t92.5 -23.5q52 0 88.5 37t36.5 91q0 77 -62.5 108t-154.5 0l-64 43l77 159q-203 11 -373 118.5 t-268.5 284.5t-98.5 383z" />
<glyph unicode="&#xc8;" horiz-adv-x="1192" d="M212 0v1536h820v-120h-697v-589h610v-118h-610v-589h697v-120h-820zM310 2048h148l218 -376h-90z" />
<glyph unicode="&#xc9;" horiz-adv-x="1192" d="M212 0v1536h820v-120h-697v-589h610v-118h-610v-589h697v-120h-820zM568 1672l218 376h148l-276 -376h-90z" />
<glyph unicode="&#xca;" horiz-adv-x="1192" d="M212 0v1536h820v-120h-697v-589h610v-118h-610v-589h697v-120h-820zM358 1672l200 376h126l199 -376h-102l-159 289l-161 -289h-103z" />
<glyph unicode="&#xcb;" horiz-adv-x="1192" d="M212 0v1536h820v-120h-697v-589h610v-118h-610v-589h697v-120h-820zM351 1825q0 40 27.5 67.5t66.5 27.5t67 -27.5t28 -67.5q0 -38 -28 -65t-67 -27q-38 0 -66 27t-28 65zM701 1825q0 40 28 67.5t67 27.5t67 -27.5t28 -67.5q0 -38 -28 -65t-67 -27t-67 27t-28 65z" />
<glyph unicode="&#xcc;" horiz-adv-x="545" d="M-38 2048h148l218 -376h-90zM212 0v1536h123v-1536h-123z" />
<glyph unicode="&#xcd;" horiz-adv-x="545" d="M212 0v1536h123v-1536h-123zM220 1672l218 376h148l-276 -376h-90z" />
<glyph unicode="&#xce;" horiz-adv-x="545" d="M10 1672l200 376h125l200 -376h-102l-159 289l-161 -289h-103zM212 0v1536h123v-1536h-123z" />
<glyph unicode="&#xcf;" horiz-adv-x="545" d="M3 1825q0 40 27.5 67.5t66.5 27.5t67 -27.5t28 -67.5q0 -38 -28 -65t-67 -27q-38 0 -66 27t-28 65zM212 0v1536h123v-1536h-123zM353 1825q0 40 28 67.5t67 27.5t67 -27.5t28 -67.5q0 -38 -28 -65t-67 -27t-67 27t-28 65z" />
<glyph unicode="&#xd0;" horiz-adv-x="1507" d="M41 709v115h159v712h399q157 0 299 -60.5t245 -163.5t163.5 -245t60.5 -299t-60.5 -299t-163.5 -245t-245 -163.5t-299 -60.5h-399v709h-159zM323 123h273q133 0 253 49.5t206.5 135t137.5 205.5t51 255t-51 255t-137.5 205.5t-206.5 135t-253 49.5h-273v-589h284v-115 h-284v-586z" />
<glyph unicode="&#xd1;" horiz-adv-x="1623" d="M200 0v1536h107l993 -1318v1318h123v-1536h-107l-993 1318v-1318h-123zM456 1738q0 112 55 183t147 71q104 0 182 -108q21 -33 45 -49.5t60 -16.5q52 0 82 42.5t30 118.5h92q0 -110 -55 -182t-149 -72q-112 0 -182 108q-42 67 -103 67q-53 0 -82.5 -45.5t-29.5 -116.5 h-92z" />
<glyph unicode="&#xd2;" d="M141 768q0 160 62.5 306t168 251.5t251.5 168t306 62.5t306 -62.5t252 -168t168.5 -251.5t62.5 -306t-62.5 -306t-168.5 -251.5t-252 -168t-306 -62.5t-306 62.5t-251.5 168t-168 251.5t-62.5 306zM264 768q0 -136 52.5 -259.5t141.5 -212.5t212 -141.5t259 -52.5 q182 0 335 89t242 242t89 335t-89 335t-242 242t-335 89q-136 0 -259 -52.5t-212 -141.5t-141.5 -212.5t-52.5 -259.5zM617 2048h148l218 -376h-90z" />
<glyph unicode="&#xd3;" d="M141 768q0 160 62.5 306t168 251.5t251.5 168t306 62.5t306 -62.5t252 -168t168.5 -251.5t62.5 -306t-62.5 -306t-168.5 -251.5t-252 -168t-306 -62.5t-306 62.5t-251.5 168t-168 251.5t-62.5 306zM264 768q0 -136 52.5 -259.5t141.5 -212.5t212 -141.5t259 -52.5 q182 0 335 89t242 242t89 335t-89 335t-242 242t-335 89q-136 0 -259 -52.5t-212 -141.5t-141.5 -212.5t-52.5 -259.5zM876 1672l217 376h149l-277 -376h-89z" />
<glyph unicode="&#xd4;" d="M141 768q0 160 62.5 306t168 251.5t251.5 168t306 62.5t306 -62.5t252 -168t168.5 -251.5t62.5 -306t-62.5 -306t-168.5 -251.5t-252 -168t-306 -62.5t-306 62.5t-251.5 168t-168 251.5t-62.5 306zM264 768q0 -136 52.5 -259.5t141.5 -212.5t212 -141.5t259 -52.5 q182 0 335 89t242 242t89 335t-89 335t-242 242t-335 89q-136 0 -259 -52.5t-212 -141.5t-141.5 -212.5t-52.5 -259.5zM666 1672l199 376h126l199 -376h-102l-159 289l-161 -289h-102z" />
<glyph unicode="&#xd5;" d="M141 768q0 160 62.5 306t168 251.5t251.5 168t306 62.5t306 -62.5t252 -168t168.5 -251.5t62.5 -306t-62.5 -306t-168.5 -251.5t-252 -168t-306 -62.5t-306 62.5t-251.5 168t-168 251.5t-62.5 306zM264 768q0 -136 52.5 -259.5t141.5 -212.5t212 -141.5t259 -52.5 q182 0 335 89t242 242t89 335t-89 335t-242 242t-335 89q-136 0 -259 -52.5t-212 -141.5t-141.5 -212.5t-52.5 -259.5zM581 1738q0 112 55 183t147 71q104 0 182 -108q21 -33 45 -49.5t60 -16.5q52 0 82.5 42.5t30.5 118.5h92q0 -110 -55.5 -182t-149.5 -72q-112 0 -182 108 q-42 67 -102 67q-53 0 -83 -45.5t-30 -116.5h-92z" />
<glyph unicode="&#xd6;" d="M141 768q0 160 62.5 306t168 251.5t251.5 168t306 62.5t306 -62.5t252 -168t168.5 -251.5t62.5 -306t-62.5 -306t-168.5 -251.5t-252 -168t-306 -62.5t-306 62.5t-251.5 168t-168 251.5t-62.5 306zM264 768q0 -136 52.5 -259.5t141.5 -212.5t212 -141.5t259 -52.5 q182 0 335 89t242 242t89 335t-89 335t-242 242t-335 89q-136 0 -259 -52.5t-212 -141.5t-141.5 -212.5t-52.5 -259.5zM658 1825q0 40 28 67.5t67 27.5t66.5 -27.5t27.5 -67.5q0 -38 -28 -65t-66 -27q-39 0 -67 27t-28 65zM1009 1825q0 40 27.5 67.5t66.5 27.5t67 -27.5 t28 -67.5q0 -38 -28 -65t-67 -27q-38 0 -66 27t-28 65z" />
<glyph unicode="&#xd7;" horiz-adv-x="1515" d="M282 561l74 74l-74 74l409 415l77 -77l77 77l412 -415l-74 -74l74 -74l-412 -415l-77 77l-77 -77z" />
<glyph unicode="&#xd8;" d="M141 768q0 160 62.5 306t168 251.5t251.5 168t306 62.5q223 0 407 -112l108 153l89 -58l-110 -157q137 -112 216 -272t79 -342q0 -160 -62.5 -306t-168.5 -251.5t-252 -168t-306 -62.5q-220 0 -404 112l-110 -156l-92 56l112 162q-137 109 -215.5 270t-78.5 344zM264 768 q0 -152 64 -286.5t176 -228.5l763 1091q-161 90 -338 90q-136 0 -259 -52.5t-212 -141.5t-141.5 -212.5t-52.5 -259.5zM594 192q156 -90 335 -90q182 0 335 89t242 242t89 335q0 152 -64.5 286.5t-176.5 228.5z" />
<glyph unicode="&#xd9;" horiz-adv-x="1507" d="M192 507v1029h123v-1011q0 -180 126 -301.5t312 -121.5q188 0 314 121t126 302v1011h123v-1029q0 -225 -160.5 -376t-402.5 -151q-158 0 -286.5 68.5t-201.5 189.5t-73 269zM440 2048h149l217 -376h-89z" />
<glyph unicode="&#xda;" horiz-adv-x="1507" d="M192 507v1029h123v-1011q0 -180 126 -301.5t312 -121.5q188 0 314 121t126 302v1011h123v-1029q0 -225 -160.5 -376t-402.5 -151q-158 0 -286.5 68.5t-201.5 189.5t-73 269zM699 1672l217 376h149l-277 -376h-89z" />
<glyph unicode="&#xdb;" horiz-adv-x="1507" d="M192 507v1029h123v-1011q0 -180 126 -301.5t312 -121.5q188 0 314 121t126 302v1011h123v-1029q0 -225 -160.5 -376t-402.5 -151q-158 0 -286.5 68.5t-201.5 189.5t-73 269zM489 1672l200 376h125l200 -376h-103l-158 289l-162 -289h-102z" />
<glyph unicode="&#xdc;" horiz-adv-x="1507" d="M192 507v1029h123v-1011q0 -180 126 -301.5t312 -121.5q188 0 314 121t126 302v1011h123v-1029q0 -225 -160.5 -376t-402.5 -151q-158 0 -286.5 68.5t-201.5 189.5t-73 269zM481 1825q0 40 28 67.5t67 27.5t67 -27.5t28 -67.5q0 -38 -28 -65t-67 -27t-67 27t-28 65z M832 1825q0 40 28 67.5t67 27.5t66.5 -27.5t27.5 -67.5q0 -38 -28 -65t-66 -27q-39 0 -67 27t-28 65z" />
<glyph unicode="&#xdd;" horiz-adv-x="1223" d="M15 1536h154l445 -681l446 681h148l-535 -809v-727h-123v727zM561 1672l217 376h149l-277 -376h-89z" />
<glyph unicode="&#xde;" horiz-adv-x="1251" d="M215 0v1536h118v-210h404q173 0 296.5 -123t123.5 -297t-123.5 -295.5t-296.5 -121.5h-404v-489h-118zM333 607h397q130 0 217 86t87 216q0 129 -87 214t-217 85h-397v-601z" />
<glyph unicode="&#xdf;" horiz-adv-x="1384" d="M215 0v1111q0 184 131.5 304.5t329.5 120.5q195 0 321.5 -116t126.5 -294q0 -109 -48.5 -200t-133.5 -150q121 -45 195 -149.5t74 -237.5q0 -169 -115 -279t-279 -110h-305v123h287q122 0 207 74t85 197q0 131 -91 220.5t-224 89.5h-131v102h56q129 0 219.5 91.5 t90.5 223.5q0 133 -93.5 220t-239.5 87q-148 0 -246.5 -90t-98.5 -227v-1111h-118z" />
<glyph unicode="&#xe0;" horiz-adv-x="1200" d="M146 264q0 131 87.5 207.5t237.5 76.5h410v118q0 118 -87 188t-221 70t-221.5 -70t-87.5 -188h-118q0 167 122 272.5t305 105.5q181 0 304.5 -106t123.5 -272v-428q0 -141 118 -141h53v-97q-28 -20 -69 -20q-88 0 -143.5 51t-73.5 138q-56 -89 -162.5 -139t-239.5 -50 q-157 0 -247.5 76.5t-90.5 207.5zM261 1536h149l217 -376h-89zM276 266q0 -83 62 -132.5t169 -49.5q129 0 230.5 65.5t143.5 173.5v122h-389q-99 0 -157.5 -49t-58.5 -130z" />
<glyph unicode="&#xe1;" horiz-adv-x="1200" d="M146 264q0 131 87.5 207.5t237.5 76.5h410v118q0 118 -87 188t-221 70t-221.5 -70t-87.5 -188h-118q0 167 122 272.5t305 105.5q181 0 304.5 -106t123.5 -272v-428q0 -141 118 -141h53v-97q-28 -20 -69 -20q-88 0 -143.5 51t-73.5 138q-56 -89 -162.5 -139t-239.5 -50 q-157 0 -247.5 76.5t-90.5 207.5zM276 266q0 -83 62 -132.5t169 -49.5q129 0 230.5 65.5t143.5 173.5v122h-389q-99 0 -157.5 -49t-58.5 -130zM520 1160l217 376h149l-277 -376h-89z" />
<glyph unicode="&#xe2;" horiz-adv-x="1200" d="M146 264q0 131 87.5 207.5t237.5 76.5h410v118q0 118 -87 188t-221 70t-221.5 -70t-87.5 -188h-118q0 167 122 272.5t305 105.5q181 0 304.5 -106t123.5 -272v-428q0 -141 118 -141h53v-97q-28 -20 -69 -20q-88 0 -143.5 51t-73.5 138q-56 -89 -162.5 -139t-239.5 -50 q-157 0 -247.5 76.5t-90.5 207.5zM276 266q0 -83 62 -132.5t169 -49.5q129 0 230.5 65.5t143.5 173.5v122h-389q-99 0 -157.5 -49t-58.5 -130zM310 1160l199 376h126l200 -376h-103l-159 289l-161 -289h-102z" />
<glyph unicode="&#xe3;" horiz-adv-x="1200" d="M146 264q0 131 87.5 207.5t237.5 76.5h410v118q0 118 -87 188t-221 70t-221.5 -70t-87.5 -188h-118q0 167 122 272.5t305 105.5q181 0 304.5 -106t123.5 -272v-428q0 -141 118 -141h53v-97q-28 -20 -69 -20q-88 0 -143.5 51t-73.5 138q-56 -89 -162.5 -139t-239.5 -50 q-157 0 -247.5 76.5t-90.5 207.5zM225 1226q0 111 55.5 182.5t147.5 71.5q103 0 181 -108q21 -33 45 -49.5t60 -16.5q52 0 82.5 42.5t30.5 118.5h92q0 -110 -55.5 -182t-149.5 -72q-112 0 -182 108q-42 67 -102 67q-53 0 -83 -45.5t-30 -116.5h-92zM276 266q0 -83 62 -132.5 t169 -49.5q129 0 230.5 65.5t143.5 173.5v122h-389q-99 0 -157.5 -49t-58.5 -130z" />
<glyph unicode="&#xe4;" horiz-adv-x="1200" d="M146 264q0 131 87.5 207.5t237.5 76.5h410v118q0 118 -87 188t-221 70t-221.5 -70t-87.5 -188h-118q0 167 122 272.5t305 105.5q181 0 304.5 -106t123.5 -272v-428q0 -141 118 -141h53v-97q-28 -20 -69 -20q-88 0 -143.5 51t-73.5 138q-56 -89 -162.5 -139t-239.5 -50 q-157 0 -247.5 76.5t-90.5 207.5zM276 266q0 -83 62 -132.5t169 -49.5q129 0 230.5 65.5t143.5 173.5v122h-389q-99 0 -157.5 -49t-58.5 -130zM302 1313q0 40 28 67.5t67 27.5t67 -27.5t28 -67.5q0 -38 -28 -65t-67 -27t-67 27t-28 65zM653 1313q0 40 28 67.5t67 27.5 t66.5 -27.5t27.5 -67.5q0 -38 -28 -65t-66 -27q-39 0 -67 27t-28 65z" />
<glyph unicode="&#xe5;" horiz-adv-x="1200" d="M146 264q0 131 87.5 207.5t237.5 76.5h410v118q0 118 -87 188t-221 70t-221.5 -70t-87.5 -188h-118q0 167 122 272.5t305 105.5q181 0 304.5 -106t123.5 -272v-428q0 -141 118 -141h53v-97q-28 -20 -69 -20q-88 0 -143.5 51t-73.5 138q-56 -89 -162.5 -139t-239.5 -50 q-157 0 -247.5 76.5t-90.5 207.5zM276 266q0 -83 62 -132.5t169 -49.5q129 0 230.5 65.5t143.5 173.5v122h-389q-99 0 -157.5 -49t-58.5 -130zM374 1326q0 83 58.5 141.5t140.5 58.5q83 0 141.5 -59t58.5 -141q0 -81 -59 -140.5t-141 -59.5t-140.5 59.5t-58.5 140.5z M448 1326q0 -54 35.5 -91t89.5 -37t91 37t37 91t-37 92.5t-91 38.5q-53 0 -89 -38t-36 -93z" />
<glyph unicode="&#xe6;" horiz-adv-x="2053" d="M146 302q0 146 103.5 232t275.5 86h348v51q0 119 -80.5 196.5t-203.5 77.5q-96 0 -178.5 -50.5t-110.5 -126.5l-118 41q39 103 152.5 169t256.5 66q133 0 234.5 -63t142.5 -167q74 106 190 168t250 62q142 0 262 -68t191.5 -186.5t76.5 -262.5v-28h-945q4 -167 125 -283 t290 -116q129 0 233.5 71t150.5 187h125q-51 -167 -190.5 -272.5t-318.5 -105.5q-136 0 -253 63.5t-190 171.5q-103 -108 -223 -171.5t-225 -63.5q-163 0 -267 90t-104 232zM264 300q0 -94 70 -152t183 -58q90 0 198 63.5t196 169.5q-35 90 -35 186h-351 q-120 0 -190.5 -55.5t-70.5 -153.5zM1006 609h801q-33 137 -144.5 226t-254.5 89q-147 0 -258 -88t-144 -227z" />
<glyph unicode="&#xe7;" horiz-adv-x="1244" d="M125 512q0 145 71.5 267.5t194 193.5t267.5 71q172 0 309.5 -100t192.5 -258h-126q-51 108 -152.5 173t-223.5 65q-172 0 -293.5 -119t-121.5 -293t121.5 -293t293.5 -119q122 0 223.5 65t152.5 173h126q-52 -150 -179 -248.5t-290 -109.5l-56 -123q109 23 185 -31 t76 -154q0 -85 -58.5 -144.5t-143.5 -59.5q-68 0 -136.5 35.5t-99.5 86.5l69 34q25 -33 74 -56.5t93 -23.5q52 0 88.5 37t36.5 91q0 77 -62.5 108t-154.5 0l-64 43l76 159q-206 15 -347.5 168t-141.5 362z" />
<glyph unicode="&#xe8;" horiz-adv-x="1303" d="M125 512q0 145 71.5 267.5t194 193.5t267.5 71q142 0 262 -68t191.5 -186.5t76.5 -262.5v-28h-945q4 -167 125 -283t290 -116q129 0 233.5 71t150.5 187h125q-51 -167 -190.5 -272.5t-318.5 -105.5q-145 0 -267.5 71t-194 193.5t-71.5 267.5zM256 609h801 q-33 137 -144.5 226t-254.5 89q-147 0 -258 -88t-144 -227zM351 1549h148l218 -377h-90z" />
<glyph unicode="&#xe9;" horiz-adv-x="1303" d="M125 512q0 145 71.5 267.5t194 193.5t267.5 71q142 0 262 -68t191.5 -186.5t76.5 -262.5v-28h-945q4 -167 125 -283t290 -116q129 0 233.5 71t150.5 187h125q-51 -167 -190.5 -272.5t-318.5 -105.5q-145 0 -267.5 71t-194 193.5t-71.5 267.5zM256 609h801 q-33 137 -144.5 226t-254.5 89q-147 0 -258 -88t-144 -227zM609 1172l218 377h148l-276 -377h-90z" />
<glyph unicode="&#xea;" horiz-adv-x="1303" d="M125 512q0 145 71.5 267.5t194 193.5t267.5 71q142 0 262 -68t191.5 -186.5t76.5 -262.5v-28h-945q4 -167 125 -283t290 -116q129 0 233.5 71t150.5 187h125q-51 -167 -190.5 -272.5t-318.5 -105.5q-145 0 -267.5 71t-194 193.5t-71.5 267.5zM256 609h801 q-33 137 -144.5 226t-254.5 89q-147 0 -258 -88t-144 -227zM399 1172l200 377h125l200 -377h-102l-159 290l-161 -290h-103z" />
<glyph unicode="&#xeb;" horiz-adv-x="1303" d="M125 512q0 145 71.5 267.5t194 193.5t267.5 71q142 0 262 -68t191.5 -186.5t76.5 -262.5v-28h-945q4 -167 125 -283t290 -116q129 0 233.5 71t150.5 187h125q-51 -167 -190.5 -272.5t-318.5 -105.5q-145 0 -267.5 71t-194 193.5t-71.5 267.5zM256 609h801 q-33 137 -144.5 226t-254.5 89q-147 0 -258 -88t-144 -227zM392 1326q0 40 27.5 67.5t66.5 27.5t67 -27.5t28 -67.5q0 -38 -28 -65t-67 -27q-38 0 -66 27t-28 65zM742 1326q0 40 28 67.5t67 27.5t67 -27.5t28 -67.5q0 -38 -28 -65t-67 -27t-67 27t-28 65z" />
<glyph unicode="&#xec;" horiz-adv-x="545" d="M-38 1536h148l218 -376h-90zM212 0v1024h121v-1024h-121z" />
<glyph unicode="&#xed;" horiz-adv-x="545" d="M212 0v1024h121v-1024h-121zM220 1160l218 376h148l-276 -376h-90z" />
<glyph unicode="&#xee;" horiz-adv-x="545" d="M10 1160l200 376h125l200 -376h-102l-159 289l-161 -289h-103zM212 0v1024h121v-1024h-121z" />
<glyph unicode="&#xef;" horiz-adv-x="545" d="M3 1313q0 40 27.5 67.5t66.5 27.5t67 -27.5t28 -67.5q0 -38 -28 -65t-67 -27q-38 0 -66 27t-28 65zM212 0v1024h121v-1024h-121zM353 1313q0 40 28 67.5t67 27.5t67 -27.5t28 -67.5q0 -38 -28 -65t-67 -27t-67 27t-28 65z" />
<glyph unicode="&#xf0;" horiz-adv-x="1323" d="M125 512q0 108 43 206.5t115.5 170t173 113.5t211.5 42q213 0 369 -140q-79 258 -256 407l-115 -149l-64 51l115 146q-156 100 -333 100l18 103q200 0 381 -121l95 123l64 -48l-95 -123q168 -140 266 -372.5t98 -508.5q0 -108 -43 -206.5t-115.5 -170t-173 -113.5 t-211.5 -42t-211.5 42t-173 113.5t-115.5 170t-43 206.5zM253 512q0 -172 121.5 -293.5t293.5 -121.5t293.5 121.5t121.5 293.5t-121.5 293.5t-293.5 121.5t-293.5 -121.5t-121.5 -293.5z" />
<glyph unicode="&#xf1;" horiz-adv-x="1159" d="M200 0v1024h120v-110q52 62 124.5 96t154.5 34q99 0 185.5 -51t138.5 -140.5t52 -194.5v-658h-117v658q0 111 -79 190t-190 79t-190 -79t-79 -190v-658h-120zM241 1226q0 112 55 183t147 71q104 0 182 -108q21 -33 45 -49.5t60 -16.5q52 0 82 42.5t30 118.5h92 q0 -110 -55 -182t-149 -72q-112 0 -182 108q-42 67 -103 67q-53 0 -82.5 -45.5t-29.5 -116.5h-92z" />
<glyph unicode="&#xf2;" horiz-adv-x="1313" d="M125 512q0 145 71.5 267.5t194 193.5t267.5 71q220 0 376 -156t156 -376t-156 -376t-376 -156q-145 0 -267.5 71t-194 193.5t-71.5 267.5zM243 512q0 -172 121 -292t294 -120q171 0 291.5 120t120.5 292t-120.5 292t-291.5 120q-173 0 -294 -120t-121 -292zM346 1536h148 l218 -376h-90z" />
<glyph unicode="&#xf3;" horiz-adv-x="1313" d="M125 512q0 145 71.5 267.5t194 193.5t267.5 71q220 0 376 -156t156 -376t-156 -376t-376 -156q-145 0 -267.5 71t-194 193.5t-71.5 267.5zM243 512q0 -172 121 -292t294 -120q171 0 291.5 120t120.5 292t-120.5 292t-291.5 120q-173 0 -294 -120t-121 -292zM604 1160 l218 376h148l-276 -376h-90z" />
<glyph unicode="&#xf4;" horiz-adv-x="1313" d="M125 512q0 145 71.5 267.5t194 193.5t267.5 71q220 0 376 -156t156 -376t-156 -376t-376 -156q-145 0 -267.5 71t-194 193.5t-71.5 267.5zM243 512q0 -172 121 -292t294 -120q171 0 291.5 120t120.5 292t-120.5 292t-291.5 120q-173 0 -294 -120t-121 -292zM394 1160 l200 376h125l200 -376h-102l-159 289l-161 -289h-103z" />
<glyph unicode="&#xf5;" horiz-adv-x="1313" d="M125 512q0 145 71.5 267.5t194 193.5t267.5 71q220 0 376 -156t156 -376t-156 -376t-376 -156q-145 0 -267.5 71t-194 193.5t-71.5 267.5zM243 512q0 -172 121 -292t294 -120q171 0 291.5 120t120.5 292t-120.5 292t-291.5 120q-173 0 -294 -120t-121 -292zM310 1226 q0 112 55 183t147 71q104 0 182 -108q21 -33 45 -49.5t60 -16.5q52 0 82 42.5t30 118.5h93q0 -110 -55.5 -182t-149.5 -72q-112 0 -182 108q-42 67 -102 67q-53 0 -83 -45.5t-30 -116.5h-92z" />
<glyph unicode="&#xf6;" horiz-adv-x="1313" d="M125 512q0 145 71.5 267.5t194 193.5t267.5 71q220 0 376 -156t156 -376t-156 -376t-376 -156q-145 0 -267.5 71t-194 193.5t-71.5 267.5zM243 512q0 -172 121 -292t294 -120q171 0 291.5 120t120.5 292t-120.5 292t-291.5 120q-173 0 -294 -120t-121 -292zM387 1313 q0 40 27.5 67.5t66.5 27.5t67 -27.5t28 -67.5q0 -38 -28 -65t-67 -27q-38 0 -66 27t-28 65zM737 1313q0 40 28 67.5t67 27.5t67 -27.5t28 -67.5q0 -38 -28 -65t-67 -27t-67 27t-28 65z" />
<glyph unicode="&#xf7;" horiz-adv-x="1536" d="M154 527v72h1228v-72h-1228zM678 215q0 36 27.5 61.5t62.5 25.5t62.5 -25.5t27.5 -61.5q0 -37 -27 -62t-63 -25t-63 25t-27 62zM678 911q0 36 27.5 61.5t62.5 25.5t62.5 -25.5t27.5 -61.5q0 -37 -27 -62t-63 -25t-63 25t-27 62z" />
<glyph unicode="&#xf8;" horiz-adv-x="1313" d="M125 512q0 145 71.5 267.5t194 193.5t267.5 71q142 0 274 -74l105 151l64 -43l-108 -154q92 -74 144.5 -182t52.5 -230q0 -220 -156 -376t-376 -156q-152 0 -271 74l-105 -154l-70 44l111 156q-92 74 -145 182t-53 230zM243 512q0 -95 38.5 -177t107.5 -138l474 673 q-100 54 -205 54q-173 0 -294 -120t-121 -292zM456 151q91 -51 202 -51q171 0 291.5 120t120.5 292q0 188 -143 315z" />
<glyph unicode="&#xf9;" horiz-adv-x="1082" d="M166 371v653h118v-640q0 -125 73.5 -204.5t182.5 -79.5q112 0 185.5 79t73.5 205v640h117v-653q0 -172 -105.5 -281.5t-270.5 -109.5t-269.5 109t-104.5 282zM233 1536h148l218 -376h-90z" />
<glyph unicode="&#xfa;" horiz-adv-x="1082" d="M166 371v653h118v-640q0 -125 73.5 -204.5t182.5 -79.5q112 0 185.5 79t73.5 205v640h117v-653q0 -172 -105.5 -281.5t-270.5 -109.5t-269.5 109t-104.5 282zM492 1160l217 376h149l-277 -376h-89z" />
<glyph unicode="&#xfb;" horiz-adv-x="1082" d="M166 371v653h118v-640q0 -125 73.5 -204.5t182.5 -79.5q112 0 185.5 79t73.5 205v640h117v-653q0 -172 -105.5 -281.5t-270.5 -109.5t-269.5 109t-104.5 282zM282 1160l199 376h126l199 -376h-102l-159 289l-161 -289h-102z" />
<glyph unicode="&#xfc;" horiz-adv-x="1082" d="M166 371v653h118v-640q0 -125 73.5 -204.5t182.5 -79.5q112 0 185.5 79t73.5 205v640h117v-653q0 -172 -105.5 -281.5t-270.5 -109.5t-269.5 109t-104.5 282zM274 1313q0 40 28 67.5t67 27.5t66.5 -27.5t27.5 -67.5q0 -38 -28 -65t-66 -27q-39 0 -67 27t-28 65zM625 1313 q0 40 27.5 67.5t66.5 27.5t67 -27.5t28 -67.5q0 -38 -28 -65t-67 -27q-38 0 -66 27t-28 65z" />
<glyph unicode="&#xfd;" horiz-adv-x="1029" d="M36 1024h133l348 -883l341 883h135l-658 -1638h-128l246 606zM461 1160l217 376h149l-277 -376h-89z" />
<glyph unicode="&#xfe;" horiz-adv-x="1402" d="M215 -614v2314h118v-853q74 92 182.5 144.5t232.5 52.5q220 0 376 -156t156 -376t-156 -376t-376 -156q-124 0 -232.5 52.5t-182.5 144.5v-791h-118zM333 512q0 -172 121 -292t294 -120q171 0 291.5 120t120.5 292t-120.5 292t-291.5 120q-173 0 -294 -120t-121 -292z " />
<glyph unicode="&#xff;" horiz-adv-x="1029" d="M36 1024h133l348 -883l341 883h135l-658 -1638h-128l246 606zM243 1313q0 40 28 67.5t67 27.5t67 -27.5t28 -67.5q0 -38 -28 -65t-67 -27t-67 27t-28 65zM594 1313q0 40 28 67.5t67 27.5t66.5 -27.5t27.5 -67.5q0 -38 -28 -65t-66 -27q-39 0 -67 27t-28 65z" />
<glyph unicode="&#x152;" horiz-adv-x="2142" d="M141 768q0 160 62.5 306t168 251.5t251.5 168t306 62.5q127 0 249 -40v20h803v-120h-698v-589h611v-118h-611v-589h698v-120h-803v20q-122 -40 -249 -40q-160 0 -306 62.5t-251.5 168t-168 251.5t-62.5 306zM261 768q0 -137 52.5 -260.5t142 -213t214 -142t262.5 -52.5 q127 0 246 48v1240q-119 48 -246 48q-138 0 -262.5 -52.5t-214 -142t-142 -213t-52.5 -260.5z" />
<glyph unicode="&#x153;" horiz-adv-x="2252" d="M125 512q0 145 71.5 267.5t194 193.5t267.5 71q153 0 280 -79t196 -212q66 132 193.5 211.5t280.5 79.5q142 0 262 -68t191.5 -186.5t76.5 -262.5v-28h-945q4 -167 125 -283t290 -116q129 0 233.5 71t150.5 187h125q-51 -167 -190.5 -272.5t-318.5 -105.5 q-153 0 -280.5 79.5t-193.5 211.5q-69 -133 -196 -212t-280 -79q-145 0 -267.5 71t-194 193.5t-71.5 267.5zM243 512q0 -172 121 -292t294 -120q171 0 291.5 120t120.5 292t-120.5 292t-291.5 120q-173 0 -294 -120t-121 -292zM1206 609h801q-33 137 -144.5 226t-254.5 89 q-147 0 -258 -88t-144 -227z" />
<glyph unicode="&#x178;" horiz-adv-x="1223" d="M15 1536h154l445 -681l446 681h148l-535 -809v-727h-123v727zM343 1825q0 40 28 67.5t67 27.5t66.5 -27.5t27.5 -67.5q0 -38 -28 -65t-66 -27q-39 0 -67 27t-28 65zM694 1825q0 40 27.5 67.5t66.5 27.5t67 -27.5t28 -67.5q0 -38 -28 -65t-67 -27q-38 0 -66 27t-28 65z " />
<glyph unicode="&#x2c6;" horiz-adv-x="115" d="M118 1160l199 376h126l200 -376h-103l-159 289l-161 -289h-102z" />
<glyph unicode="&#x2dc;" horiz-adv-x="161" d="M82 1288q0 111 55 182t147 71q105 0 182 -107q42 -67 105 -67q52 0 82.5 42.5t30.5 118.5h92q0 -110 -55.5 -181.5t-149.5 -71.5q-113 0 -182 107q-42 67 -102 67q-53 0 -83 -45t-30 -116h-92z" />
<glyph unicode="&#x2000;" horiz-adv-x="1024" />
<glyph unicode="&#x2001;" horiz-adv-x="2048" />
<glyph unicode="&#x2002;" horiz-adv-x="1024" />
<glyph unicode="&#x2003;" horiz-adv-x="2048" />
<glyph unicode="&#x2004;" horiz-adv-x="682" />
<glyph unicode="&#x2005;" horiz-adv-x="512" />
<glyph unicode="&#x2006;" horiz-adv-x="341" />
<glyph unicode="&#x2007;" horiz-adv-x="341" />
<glyph unicode="&#x2008;" horiz-adv-x="256" />
<glyph unicode="&#x2009;" horiz-adv-x="409" />
<glyph unicode="&#x200a;" horiz-adv-x="113" />
<glyph unicode="&#x2010;" horiz-adv-x="1013" d="M148 474v117h717v-117h-717z" />
<glyph unicode="&#x2011;" horiz-adv-x="1013" d="M148 474v117h717v-117h-717z" />
<glyph unicode="&#x2012;" horiz-adv-x="1013" d="M148 474v117h717v-117h-717z" />
<glyph unicode="&#x2013;" horiz-adv-x="1320" d="M148 474v117h1024v-117h-1024z" />
<glyph unicode="&#x2014;" horiz-adv-x="2048" d="M0 474v117h2048v-117h-2048z" />
<glyph unicode="&#x2018;" horiz-adv-x="453" d="M97 940l218 616h92l-174 -616h-136z" />
<glyph unicode="&#x2019;" horiz-adv-x="337" d="M90 940l174 616h135l-217 -616h-92z" />
<glyph unicode="&#x201a;" horiz-adv-x="460" d="M61 -397l175 617h135l-217 -617h-93z" />
<glyph unicode="&#x201c;" horiz-adv-x="768" d="M118 940l217 616h93l-175 -616h-135zM428 940l217 616h92l-174 -616h-135z" />
<glyph unicode="&#x201d;" horiz-adv-x="773" d="M46 940l174 616h136l-218 -616h-92zM364 940l174 616h135l-217 -616h-92z" />
<glyph unicode="&#x201e;" horiz-adv-x="755" d="M56 -397l174 617h136l-218 -617h-92zM387 -397l174 617h135l-217 -617h-92z" />
<glyph unicode="&#x2022;" horiz-adv-x="1152" d="M256 671q0 130 95.5 226t224.5 96t224.5 -96t95.5 -226q0 -132 -95 -225t-225 -93t-225 93t-95 225z" />
<glyph unicode="&#x2026;" horiz-adv-x="1574" d="M148 95q0 45 35 78.5t81 33.5t80.5 -33.5t34.5 -78.5q0 -47 -34.5 -81t-80.5 -34t-81 34t-35 81zM689 95q0 45 34.5 78.5t80.5 33.5t80.5 -33.5t34.5 -78.5q0 -47 -34.5 -81t-80.5 -34t-80.5 34t-34.5 81zM1236 95q0 45 35 78.5t81 33.5t80.5 -33.5t34.5 -78.5 q0 -47 -34.5 -81t-80.5 -34t-81 34t-35 81z" />
<glyph unicode="&#x202f;" horiz-adv-x="409" />
<glyph unicode="&#x2039;" horiz-adv-x="727" d="M136 571l309 376h111l-313 -376l313 -376h-111z" />
<glyph unicode="&#x203a;" horiz-adv-x="727" d="M174 195l310 376l-310 376h108l312 -376l-312 -376h-108z" />
<glyph unicode="&#x205f;" horiz-adv-x="512" />
<glyph unicode="&#x20ac;" horiz-adv-x="1630" d="M31 553l164 33q-21 95 -21 182q0 54 8 120l-151 3l158 31q52 274 270 454t504 180q119 0 235.5 -38t212.5 -107l-39 -121q-180 144 -409 144q-230 0 -407.5 -136.5t-235.5 -350.5l215 41l735 -15l-530 -97l-433 10q-10 -48 -10 -118q0 -88 18 -156l177 36l668 -16 l-487 -97l-338 10q68 -198 239.5 -320.5t388.5 -122.5q129 0 249.5 50t213.5 140v-159q-101 -72 -222 -112.5t-241 -40.5q-268 0 -477 159t-281 409z" />
<glyph unicode="&#x2122;" horiz-adv-x="1656" d="M113 1464v72h481v-72h-202v-650h-80v650h-199zM727 814v722h87l271 -404l272 404h87v-722h-80v594l-279 -415l-276 407v-586h-82z" />
<glyph unicode="&#x25fc;" horiz-adv-x="1024" d="M0 0v1024h1024v-1024h-1024z" />
</font>
</defs>
</svg>
