<?xml version="1.0" standalone="no"?>
<!DOCTYPE svg PUBLIC "-//W3C//DTD SVG 1.1//EN" "http://www.w3.org/Graphics/SVG/1.1/DTD/svg11.dtd" >
<svg xmlns="http://www.w3.org/2000/svg" xmlns:xlink="http://www.w3.org/1999/xlink" version="1.1">
<metadata></metadata>
<defs>
<font id="now_altthin" horiz-adv-x="1917" >
<font-face units-per-em="2048" ascent="1638" descent="-410" />
<missing-glyph horiz-adv-x="655" />
<glyph unicode="&#xfb01;" horiz-adv-x="1264" d="M113 983v41h171v637q0 92 65.5 157.5t157.5 65.5q27 0 60 -9.5t53 -23.5v-26l-113 18q-77 0 -129.5 -52.5t-52.5 -129.5v-637h295v-41h-295v-983h-41v983h-171zM929 1290q0 25 18.5 43.5t43.5 18.5t43 -18.5t18 -43.5q0 -26 -18 -43.5t-43 -17.5t-43.5 17.5t-18.5 43.5z M970 0v1024h41v-1024h-41z" />
<glyph unicode="&#xfb02;" horiz-adv-x="1208" d="M113 983v41h171v637q0 92 65.5 157.5t157.5 65.5q27 0 60 -9.5t53 -23.5v-26l-113 18q-77 0 -129.5 -52.5t-52.5 -129.5v-637h295v-41h-295v-983h-41v983h-171zM942 0v1884h41v-1884h-41z" />
<glyph horiz-adv-x="0" />
<glyph horiz-adv-x="682" />
<glyph unicode=" "  horiz-adv-x="655" />
<glyph unicode="&#x09;" horiz-adv-x="655" />
<glyph unicode="&#xa0;" horiz-adv-x="655" />
<glyph unicode="!" horiz-adv-x="601" d="M241 41q0 26 18 43.5t43 17.5q24 0 43 -17.5t19 -43.5q0 -24 -19 -42.5t-43 -18.5q-25 0 -43 18t-18 43zM282 369v1351h41v-1351h-41z" />
<glyph unicode="&#x22;" horiz-adv-x="780" d="M241 881v675h41v-675h-41zM499 881v675h41v-675h-41z" />
<glyph unicode="#" horiz-adv-x="1561" d="M189 379l8 43h289l82 561h-289l5 41h284l57 381h41l-54 -381h430l54 381h41l-54 -381h289l-5 -41h-289l-80 -561h287l-5 -43h-287l-56 -379h-41l54 379h-430l-54 -379h-41l54 379h-290zM527 422h430l80 561h-430z" />
<glyph unicode="$" horiz-adv-x="1169" d="M123 269l38 13q43 -112 158 -187t272 -75q111 0 204 38.5t152 118.5t59 187q0 72 -27.5 130.5t-74 99.5t-107 75.5t-127.5 64t-134 59.5t-127.5 67t-107 81.5t-74 108.5t-27.5 143q0 87 32.5 157t87.5 112.5t120 66t136 27.5v180h41v-180q111 -4 202.5 -52.5 t145.5 -121.5l-33 -25q-48 67 -135.5 113t-194.5 46q-67 0 -130 -20t-115.5 -58.5t-84 -102t-31.5 -142.5q0 -72 27.5 -131t74 -100t107 -76t127.5 -64.5t134 -59.5t127.5 -67t107 -81t74 -108t27.5 -142q0 -92 -37 -166t-99 -119t-137 -70t-157 -29v-169h-41v169 q-161 4 -283.5 85t-169.5 204z" />
<glyph unicode="%" horiz-adv-x="1448" d="M166 0l1070 1536h49l-1073 -1536h-46zM187 1280q0 113 68.5 194.5t164.5 81.5t164.5 -81.5t68.5 -194.5t-68.5 -194.5t-164.5 -81.5t-164.5 81.5t-68.5 194.5zM228 1280q0 -99 55.5 -167.5t136.5 -68.5q79 0 135.5 69t56.5 167t-56.5 167t-135.5 69q-81 0 -136.5 -68.5 t-55.5 -167.5zM799 256q0 113 68.5 194.5t164.5 81.5q98 0 165.5 -81t67.5 -195t-67.5 -195t-165.5 -81q-96 0 -164.5 81.5t-68.5 194.5zM840 256q0 -98 56.5 -167t135.5 -69t135.5 69t56.5 167t-56.5 167t-135.5 69t-135.5 -69t-56.5 -167z" />
<glyph unicode="&#x26;" horiz-adv-x="1374" d="M225 404q0 135 77.5 241.5t199.5 145.5q-117 41 -189 141.5t-72 229.5q0 163 112.5 268.5t268.5 105.5h325v-41h-322q-140 0 -241.5 -94.5t-101.5 -238.5q0 -148 102.5 -250.5t252.5 -102.5h395v302h41v-302h158v-41h-158v-366q0 -176 -112 -289t-293 -113 q-187 0 -315 114.5t-128 289.5zM266 404q0 -157 116.5 -260t283.5 -103q164 0 265 101t101 260v366h-412q-147 0 -250.5 -106.5t-103.5 -257.5z" />
<glyph unicode="'" horiz-adv-x="519" d="M241 963v593h41v-593h-41z" />
<glyph unicode="(" horiz-adv-x="855" d="M200 712q0 278 36 497t100 360t148.5 220t186.5 95v-33q-193 -39 -311.5 -325t-118.5 -814q0 -521 118.5 -805.5t311.5 -323.5v-34q-102 15 -186.5 92.5t-148.5 217.5t-100 358t-36 495z" />
<glyph unicode=")" horiz-adv-x="855" d="M184 -417q192 39 311 324t119 805q0 527 -119 813.5t-311 325.5v33q101 -16 185.5 -95t149 -220t100.5 -360.5t36 -496.5t-36 -495t-100.5 -358t-149 -217.5t-185.5 -92.5v34z" />
<glyph unicode="*" horiz-adv-x="724" d="M159 1280v46l179 -8l-97 151l41 21l82 -154l81 154l41 -21l-99 -151l181 8v-46l-181 5l99 -146l-41 -25l-81 153l-82 -153l-41 25l97 146z" />
<glyph unicode="+" horiz-adv-x="1748" d="M241 614v41h614v615h41v-615h614v-41h-614v-614h-41v614h-614z" />
<glyph unicode="," horiz-adv-x="440" d="M23 -374l279 638h46l-281 -638h-44z" />
<glyph unicode="-" horiz-adv-x="1195" d="M241 512v41h716v-41h-716z" />
<glyph unicode="." horiz-adv-x="601" d="M241 41q0 25 18 43t43 18q24 0 43 -18.5t19 -42.5q0 -26 -19 -43.5t-43 -17.5q-25 0 -43 17.5t-18 43.5z" />
<glyph unicode="/" horiz-adv-x="1313" d="M-20 -614l1305 2498h49l-1308 -2498h-46z" />
<glyph unicode="0" horiz-adv-x="1466" d="M200 768q0 220 61.5 397t184 284t286.5 107q124 0 225.5 -62t168 -169t103 -250t36.5 -307t-36.5 -307t-103 -250t-168 -169t-225.5 -62q-164 0 -286.5 107t-184 284t-61.5 397zM241 768q0 -156 33.5 -292t94.5 -237.5t155 -160t208 -58.5q152 0 265 101t170 269t57 378 t-57 378t-170 269t-265 101q-114 0 -208 -58.5t-155 -160t-94.5 -237.5t-33.5 -292z" />
<glyph unicode="1" horiz-adv-x="755" d="M159 1495v41h294v-1536h-41v1495h-253z" />
<glyph unicode="2" horiz-adv-x="1364" d="M143 0l676 660q167 171 224.5 265.5t57.5 198.5q0 176 -110 282t-284 110q-173 4 -288.5 -101.5t-126.5 -282.5l-41 2q11 193 138 309.5t318 112.5q179 -4 299 -110.5t133 -296.5q7 -123 -52 -227.5t-235 -284.5l-609 -596h968v-41h-1068z" />
<glyph unicode="3" horiz-adv-x="1272" d="M179 425h41q0 -167 119 -286t286 -119t285.5 119t118.5 286q0 169 -118.5 288t-285.5 119h-261l547 660l5 3h-737v41h822l-553 -663h177q184 0 314.5 -131.5t130.5 -316.5q0 -121 -59.5 -223.5t-162 -162t-223.5 -59.5q-185 0 -315.5 130.5t-130.5 314.5z" />
<glyph unicode="4" horiz-adv-x="1264" d="M102 323l753 1213h41v-1172h189v-41h-189v-323h-41v323h-753zM179 364h676v1100z" />
<glyph unicode="5" horiz-adv-x="1308" d="M164 189v49h8q85 -114 197 -166t235 -52q138 0 249.5 63t173 169.5t61.5 233.5q0 197 -136.5 334t-331.5 137q-92 0 -179 -35t-152 -98l-48 26l99 681h707v-41h-671l-92 -614q152 122 336 122q139 0 256 -68.5t185 -186t68 -257.5q0 -102 -40 -195t-109 -161.5t-167 -109 t-209 -40.5q-132 0 -249.5 53.5t-190.5 155.5z" />
<glyph unicode="6" horiz-adv-x="1377" d="M182 453q-10 109 27 212t114 182l581 689h61l-491 -571q71 29 174 36q209 19 369.5 -117t180.5 -346q17 -211 -119.5 -372t-346.5 -181q-141 -10 -263.5 50.5t-199 171.5t-87.5 246zM223 456q10 -127 81.5 -229.5t184.5 -156.5t241 -44q127 11 229 82.5t155 183.5t43 240 q-17 195 -166 320t-341 108q-126 -10 -228.5 -81.5t-156 -184t-42.5 -238.5z" />
<glyph unicode="7" horiz-adv-x="1239" d="M143 1495v41h994v-5l-889 -1531h-59l881 1495h-927z" />
<glyph unicode="8" horiz-adv-x="1192" d="M148 425q0 150 90 268.5t230 161.5q-105 39 -170 131t-65 207q0 151 105.5 257t257.5 106q150 0 255.5 -106t105.5 -257q0 -115 -65 -207t-170 -131q140 -43 230 -161.5t90 -268.5q0 -184 -130.5 -314.5t-315.5 -130.5t-316.5 130.5t-131.5 314.5zM189 425 q0 -167 120 -286t287 -119t286 119t119 286q0 169 -119 288t-286 119q-168 0 -287.5 -119.5t-119.5 -287.5zM274 1193q0 -133 94 -226.5t228 -93.5q133 0 226.5 93.5t93.5 226.5q0 134 -93.5 228.5t-226.5 94.5q-134 0 -228 -94.5t-94 -228.5z" />
<glyph unicode="9" horiz-adv-x="1377" d="M182 998q-17 211 118.5 372t347.5 181q140 10 262.5 -50.5t198.5 -171t89 -246.5q10 -108 -27.5 -211t-113.5 -183l-581 -689h-61l491 571q-70 -28 -174 -36q-137 -13 -260 45t-201 169.5t-89 248.5zM223 1004q15 -195 163.5 -320t343.5 -108q193 15 317.5 163t109.5 341 q-11 127 -82.5 229.5t-184.5 156.5t-240 44q-126 -11 -228.5 -82.5t-156 -184t-42.5 -239.5z" />
<glyph unicode=":" horiz-adv-x="614" d="M246 41q0 25 18 43t43 18t43.5 -18t18.5 -43q0 -26 -18.5 -43.5t-43.5 -17.5t-43 17.5t-18 43.5zM246 983q0 25 18 43t43 18t43.5 -18t18.5 -43q0 -26 -18.5 -43.5t-43.5 -17.5t-43 17.5t-18 43.5z" />
<glyph unicode=";" horiz-adv-x="642" d="M69 -374l279 638h46l-281 -638h-44zM251 983q0 25 18 43t43 18q24 0 43 -18.5t19 -42.5q0 -26 -19 -43.5t-43 -17.5q-25 0 -43 17.5t-18 43.5z" />
<glyph unicode="&#x3c;" horiz-adv-x="1610" d="M241 625v46l1129 565v-43l-1083 -545l1083 -551v-43z" />
<glyph unicode="=" horiz-adv-x="1584" d="M179 338v41h1229v-41h-1229zM179 707v41h1229v-41h-1229z" />
<glyph unicode="&#x3e;" horiz-adv-x="1610" d="M241 54v43l1083 551l-1083 545v43l1129 -565v-46z" />
<glyph unicode="?" horiz-adv-x="1203" d="M246 1418q19 144 126.5 233.5t259.5 89.5q174 0 281.5 -104.5t107.5 -272.5q0 -75 -20.5 -133.5t-53 -95t-71.5 -66t-78 -55.5t-71.5 -54t-53 -71t-20.5 -98v-387h-41v369q0 68 20.5 119.5t53 83.5t71.5 59l78 54t71.5 60.5t53 88t20.5 126.5q0 150 -96.5 244t-251.5 94 q-132 0 -227 -78.5t-118 -205.5h-41zM579 41q0 24 18.5 42.5t42.5 18.5q25 0 43 -18t18 -43q0 -26 -18 -43.5t-43 -17.5q-24 0 -42.5 17.5t-18.5 43.5z" />
<glyph unicode="@" horiz-adv-x="1300" d="M179 563q0 115 40 219t108 179t163 119t201 44q155 0 262 -108.5t107 -265.5v-445h-41v110q-33 -55 -97.5 -94t-122.5 -39q-114 0 -193 74.5t-79 183.5q0 107 79.5 181.5t192.5 74.5q66 0 131.5 -42.5t88.5 -103.5v100q0 138 -95.5 234t-232.5 96q-130 0 -238.5 -68.5 t-170.5 -187.5t-62 -261q0 -144 72.5 -263t197 -187.5t273.5 -68.5h297v-44h-297q-161 0 -295.5 74.5t-211.5 204t-77 284.5zM576 540q0 -90 63 -151t157 -61t158.5 61t64.5 151t-64.5 151.5t-158.5 61.5t-157 -61.5t-63 -151.5z" />
<glyph unicode="A" horiz-adv-x="1233" d="M38 0l556 1536h46l553 -1536h-46l-143 397h-774l-143 -397h-49zM243 438h748l-374 1042z" />
<glyph unicode="B" horiz-adv-x="1320" d="M225 0v1536h494q164 0 279.5 -115.5t115.5 -278.5q0 -122 -69 -221.5t-180 -144.5q128 -33 212.5 -140t84.5 -242q0 -162 -115.5 -278t-278.5 -116h-543zM266 41h502q146 0 249.5 103.5t103.5 249.5t-103.5 250t-249.5 104h-502v-707zM266 788h453q147 0 250.5 103.5 t103.5 250.5q0 146 -104 249.5t-250 103.5h-453v-707z" />
<glyph unicode="C" horiz-adv-x="1761" d="M169 768q0 160 62.5 306t168 251.5t251.5 168t306 62.5q215 0 396 -105.5t285 -283.5l-35 -20q-98 168 -270 268.5t-376 100.5q-152 0 -290 -59t-238.5 -159t-159.5 -238.5t-59 -291.5t59 -291.5t159.5 -238.5t238.5 -159t290 -59q204 0 376 100.5t270 268.5l35 -20 q-104 -178 -285 -283.5t-396 -105.5q-160 0 -306 62.5t-251.5 168t-168 251.5t-62.5 306z" />
<glyph unicode="D" horiz-adv-x="1520" d="M225 0v1536h359q157 0 299 -60.5t245 -163.5t163.5 -245t60.5 -299t-60.5 -299t-163.5 -245t-245 -163.5t-299 -60.5h-359zM266 41h318q199 0 366 97t264 264t97 366t-97 366t-264 264t-366 97h-318v-1454z" />
<glyph unicode="E" horiz-adv-x="1190" d="M238 0v1536h778v-41h-737v-707h650v-40h-650v-707h737v-41h-778z" />
<glyph unicode="F" horiz-adv-x="1118" d="M238 0v1536h778v-41h-737v-707h650v-40h-650v-748h-41z" />
<glyph unicode="G" d="M169 768q0 160 62.5 306t168 251.5t251.5 168t306 62.5q215 0 396 -105.5t285 -283.5l-35 -20q-98 168 -270 268.5t-376 100.5q-152 0 -290 -59t-238.5 -159t-159.5 -238.5t-59 -291.5t59 -291.5t159.5 -238.5t238.5 -159t290 -59q149 0 285 56.5t235.5 152.5 t160.5 229.5t67 281.5h-748v41h789v-13q0 -160 -62 -306t-167.5 -251.5t-252 -168t-307.5 -62.5q-160 0 -306 62.5t-251.5 168t-168 251.5t-62.5 306z" />
<glyph unicode="H" horiz-adv-x="1536" d="M225 0v1536h41v-748h1004v748h41v-1536h-41v748h-1004v-748h-41z" />
<glyph unicode="I" horiz-adv-x="514" d="M238 0v1536h41v-1536h-41z" />
<glyph unicode="J" horiz-adv-x="1029" d="M123 317l41 8q15 -130 104 -217.5t208 -87.5q133 0 226.5 104t93.5 252v1119h-624v41h665v-1160q0 -164 -105.5 -280t-255.5 -116q-134 0 -233.5 96t-119.5 241z" />
<glyph unicode="K" horiz-adv-x="1141" d="M225 0v1536h41v-686h90l706 686h59l-727 -707l748 -829h-59l-730 809h-87v-809h-41z" />
<glyph unicode="L" horiz-adv-x="921" d="M225 0v1536h41v-1495h615v-41h-656z" />
<glyph unicode="M" horiz-adv-x="1853" d="M225 0v1536h36l666 -1485l665 1485h36v-1536h-41v1441l-645 -1441h-33l-643 1441v-1441h-41z" />
<glyph unicode="N" horiz-adv-x="1592" d="M225 0v1536h16l1085 -1434v1434h41v-1536h-15l-1086 1431v-1431h-41z" />
<glyph unicode="O" d="M169 768q0 160 62.5 306t168 251.5t251.5 168t306 62.5q161 0 307.5 -62.5t252 -168t167.5 -251.5t62 -306t-62 -306t-167.5 -251.5t-252 -168t-307.5 -62.5q-160 0 -306 62.5t-251.5 168t-168 251.5t-62.5 306zM210 768q0 -153 59 -291.5t159.5 -238.5t238.5 -159 t290 -59q153 0 291.5 59t238.5 159t159 238.5t59 291.5t-59 291.5t-159 238.5t-238.5 159t-291.5 59q-152 0 -290 -59t-238.5 -159t-159.5 -238.5t-59 -291.5z" />
<glyph unicode="P" horiz-adv-x="1187" d="M225 0v1536h476q168 0 286.5 -118t118.5 -286q0 -167 -119 -286t-286 -119h-435v-727h-41zM266 768h435q151 0 257.5 106t106.5 258q0 151 -107 257t-257 106h-435v-727z" />
<glyph unicode="Q" d="M169 768q0 160 62.5 306t168 251.5t251.5 168t306 62.5q161 0 307.5 -62.5t252 -168t167.5 -251.5t62 -306q0 -258 -149 -463t-386 -285l146 21h366v-41h-586q-86 -20 -180 -20q-160 0 -306 62.5t-251.5 168t-168 251.5t-62.5 306zM210 768q0 -153 59 -291.5 t159.5 -238.5t238.5 -159t290 -59q153 0 291.5 59t238.5 159t159 238.5t59 291.5t-59 291.5t-159 238.5t-238.5 159t-291.5 59q-152 0 -290 -59t-238.5 -159t-159.5 -238.5t-59 -291.5z" />
<glyph unicode="R" horiz-adv-x="1251" d="M225 0v1536h476q168 0 286.5 -118t118.5 -286q0 -161 -111.5 -278t-272.5 -127l468 -727h-48l-461 727h-415v-727h-41zM266 768h435q151 0 257.5 106t106.5 258q0 151 -107 257t-257 106h-435v-727z" />
<glyph unicode="S" horiz-adv-x="1169" d="M123 269l38 13q43 -112 158 -187t272 -75q111 0 204 38.5t152 118.5t59 187q0 72 -27.5 130.5t-74 99.5t-107 75.5t-127.5 64t-134 59.5t-127.5 67t-107 81.5t-74 108.5t-27.5 143q0 73 23.5 134.5t63 103t91.5 70.5t107.5 42t113.5 13q116 0 213 -49.5t153 -124.5 l-33 -25q-48 67 -135.5 113t-194.5 46q-67 0 -130 -20t-115.5 -58.5t-84 -102t-31.5 -142.5q0 -72 27.5 -131t74 -100t107 -76t127.5 -64.5t134 -59.5t127.5 -67t107 -81t74 -108t27.5 -142q0 -96 -40 -171.5t-107 -120.5t-146.5 -68.5t-164.5 -23.5q-164 0 -291.5 82 t-174.5 207z" />
<glyph unicode="T" horiz-adv-x="1064" d="M61 1498v41h943v-41h-451v-1495h-41v1495h-451z" />
<glyph unicode="U" horiz-adv-x="1500" d="M218 512v1024h41v-1024q0 -134 65 -247t178 -179t248 -66q203 0 347.5 144.5t144.5 347.5v1024h41v-1024q0 -145 -71.5 -267.5t-194 -193.5t-267.5 -71q-220 0 -376 156t-156 376z" />
<glyph unicode="V" horiz-adv-x="1233" d="M38 1536h49l530 -1480l530 1480h46l-553 -1536h-46z" />
<glyph unicode="W" horiz-adv-x="2176" d="M41 1536h46l489 -1477l489 1477h46l489 -1477l489 1477h46l-512 -1536h-46l-489 1467l-489 -1467h-46z" />
<glyph unicode="X" horiz-adv-x="1164" d="M41 0l517 768l-517 768h49l491 -732l492 732h48l-514 -768l517 -768h-51l-492 732l-489 -732h-51z" />
<glyph unicode="Y" horiz-adv-x="1192" d="M41 1536h49l506 -765l505 765h51l-532 -801h-3v-735h-41v735h-5z" />
<glyph unicode="Z" horiz-adv-x="1408" d="M133 0l1022 1495h-996v41h1075l-1022 -1495h1073v-41h-1152z" />
<glyph unicode="[" horiz-adv-x="752" d="M225 -512v2396h302v-43h-263v-2309h263v-44h-302z" />
<glyph unicode="\" horiz-adv-x="1305" d="M-20 1884h46l1300 -2486h-46z" />
<glyph unicode="]" horiz-adv-x="752" d="M225 -468h264v2309h-264v43h302v-2396h-302v44z" />
<glyph unicode="^" horiz-adv-x="1418" d="M118 404l568 1132h46l568 -1132h-46l-545 1086l-548 -1086h-43z" />
<glyph unicode="_" horiz-adv-x="1502" d="M138 0h1229v-41h-1229v41z" />
<glyph unicode="`" horiz-adv-x="81" d="M108 1536h66l205 -371h-51z" />
<glyph unicode="a" horiz-adv-x="1162" d="M164 259q0 125 77 199t207 74h448v187q0 124 -98 204.5t-248 80.5q-148 0 -245.5 -80.5t-97.5 -204.5h-41q0 141 109.5 233t277.5 92q165 0 274.5 -92.5t109.5 -232.5v-537q0 -82 32.5 -122t108.5 -40h43v-20q-27 -20 -59 -20q-166 0 -166 202q-57 -93 -170.5 -147.5 t-241.5 -54.5q-151 0 -235.5 74.5t-84.5 204.5zM205 261q0 -112 74.5 -176.5t206.5 -64.5q134 0 245 62t165 166v244h-448q-110 0 -176.5 -63.5t-66.5 -167.5z" />
<glyph unicode="b" horiz-adv-x="1433" d="M225 0v1884h41v-1170q62 148 195.5 239t296.5 91q108 0 206 -42.5t169.5 -114t114 -169.5t42.5 -206t-42.5 -206t-114 -169.5t-169.5 -114t-206 -42.5q-163 0 -296.5 91t-195.5 239v-310h-41zM266 512q0 -203 144.5 -347.5t347.5 -144.5t347 144.5t144 347.5t-144 347.5 t-347 144.5t-347.5 -144.5t-144.5 -347.5z" />
<glyph unicode="c" horiz-adv-x="1290" d="M143 512q0 144 72 266.5t194.5 194t266.5 71.5q165 0 300.5 -93.5t195.5 -243.5h-40q-58 134 -182.5 215.5t-273.5 81.5q-133 0 -247 -64q-115 -64 -181 -178q-65 -111 -64 -242v-8v-8q0 -131 64 -242q66 -114 180.5 -178t247.5 -64q149 0 273.5 81.5t182.5 215.5h40 q-60 -150 -195.5 -243.5t-300.5 -93.5q-144 0 -266.5 71.5t-194.5 194t-72 266.5z" />
<glyph unicode="d" horiz-adv-x="1433" d="M143 512q0 144 72 266.5t194.5 194t266.5 71.5q163 0 296 -91t195 -239v1170h41v-1884h-41v310q-62 -148 -195 -239t-296 -91q-144 0 -266.5 71.5t-194.5 194t-72 266.5zM184 512q0 -203 144.5 -347.5t347.5 -144.5t347 144.5t144 347.5t-144 347.5t-347 144.5 t-347.5 -144.5t-144.5 -347.5z" />
<glyph unicode="e" horiz-adv-x="1338" d="M143 512q0 144 72 266.5t194.5 194t266.5 71.5q140 0 258.5 -66t190.5 -182t81 -258v-16h-1022v-20q2 -132 68.5 -243t179 -175t244.5 -64q159 0 287 92.5t179 238.5h41q-52 -163 -192 -267t-315 -104q-144 0 -266.5 71.5t-194.5 194t-72 266.5zM187 563h978 q-21 187 -160.5 314t-328.5 127q-190 0 -328 -125.5t-161 -315.5z" />
<glyph unicode="f" horiz-adv-x="716" d="M113 983v41h171v637q0 92 65.5 157.5t157.5 65.5q27 0 60 -9.5t53 -23.5v-26l-113 18q-77 0 -129.5 -52.5t-52.5 -129.5v-637h295v-41h-295v-983h-41v983h-171z" />
<glyph unicode="g" horiz-adv-x="1433" d="M143 512q0 144 72 267t194.5 194t266.5 71q163 0 296 -90.5t195 -236.5v307h41v-1106q0 -108 -42.5 -206t-114 -169.5t-169.5 -114t-206 -42.5q-146 0 -272 75.5t-197 205.5l36 18q67 -121 183 -189.5t250 -68.5q203 0 347 144t144 347v392q-62 -148 -195 -239t-296 -91 q-144 0 -266.5 71.5t-194.5 194t-72 266.5zM184 512q0 -203 144.5 -347.5t347.5 -144.5t347 144.5t144 347.5t-144 347.5t-347 144.5t-347.5 -144.5t-144.5 -347.5z" />
<glyph unicode="h" horiz-adv-x="1149" d="M225 0v1884h41v-1047q45 94 130.5 150.5t189.5 56.5q148 0 253.5 -110.5t105.5 -265.5v-668h-41v668q0 140 -93.5 239t-226.5 99q-131 0 -224.5 -99t-93.5 -239v-668h-41z" />
<glyph unicode="i" horiz-adv-x="547" d="M212 1290q0 25 18.5 43.5t43.5 18.5t43 -18.5t18 -43.5q0 -26 -18 -43.5t-43 -17.5t-43.5 17.5t-18.5 43.5zM253 0v1024h41v-1024h-41z" />
<glyph unicode="j" horiz-adv-x="568" d="M-20 -556l112 -17q77 0 129.5 52.5t52.5 128.5v1416h41v-1416q0 -92 -65.5 -157t-157.5 -65q-27 0 -59.5 9.5t-52.5 23.5v25zM233 1290q0 25 18 43.5t43 18.5t43.5 -18.5t18.5 -43.5q0 -26 -18.5 -43.5t-43.5 -17.5t-43 17.5t-18 43.5z" />
<glyph unicode="k" horiz-adv-x="980" d="M241 3v1881h41v-1881h-41zM312 573l523 451h64l-525 -451l566 -573h-59z" />
<glyph unicode="l" horiz-adv-x="491" d="M225 0v1884h41v-1884h-41z" />
<glyph unicode="m" horiz-adv-x="1751" d="M225 0v1024h41v-166q42 86 123 136t179 50q110 0 197 -63t121 -169q37 106 124 169t198 63q142 0 240 -101t98 -254v-689h-38v689q0 138 -87.5 226.5t-214.5 88.5t-213.5 -88.5t-86.5 -226.5v-689h-41v689q0 138 -86 226.5t-213 88.5t-213.5 -88.5t-86.5 -226.5v-689h-41 z" />
<glyph unicode="n" horiz-adv-x="1185" d="M225 0v1024h41v-189q46 95 137 152t201 57q157 0 266.5 -110t109.5 -266v-668h-40v668q0 140 -98 239t-238 99t-239 -99t-99 -239v-668h-41z" />
<glyph unicode="o" horiz-adv-x="1351" d="M143 512q0 144 72 266.5t194.5 194t266.5 71.5q108 0 206 -42.5t169.5 -114t114 -169.5t42.5 -206t-42.5 -206t-114 -169.5t-169.5 -114t-206 -42.5q-144 0 -266.5 71.5t-194.5 194t-72 266.5zM184 512q0 -203 144.5 -347.5t347.5 -144.5t347 144.5t144 347.5t-144 347.5 t-347 144.5t-347.5 -144.5t-144.5 -347.5z" />
<glyph unicode="p" horiz-adv-x="1433" d="M225 -614v1638h41v-310q62 148 195.5 239t296.5 91q108 0 206 -42.5t169.5 -114t114 -169.5t42.5 -206t-42.5 -206t-114 -169.5t-169.5 -114t-206 -42.5q-163 0 -296.5 91t-195.5 239v-924h-41zM266 512q0 -203 144.5 -347.5t347.5 -144.5t347 144.5t144 347.5 t-144 347.5t-347 144.5t-347.5 -144.5t-144.5 -347.5z" />
<glyph unicode="q" horiz-adv-x="1433" d="M143 512q0 144 72 266.5t194.5 194t266.5 71.5q163 0 296 -91t195 -239v310h41v-1416q0 -76 52.5 -128.5t129.5 -52.5h92v-21q-43 -20 -92 -20q-92 0 -157.5 65t-65.5 157v702q-62 -148 -195 -239t-296 -91q-144 0 -266.5 71.5t-194.5 194t-72 266.5zM184 512 q0 -203 144.5 -347.5t347.5 -144.5t347 144.5t144 347.5t-144 347.5t-347 144.5t-347.5 -144.5t-144.5 -347.5z" />
<glyph unicode="r" horiz-adv-x="752" d="M225 0v1024h41v-202q49 100 146 161t213 61q35 0 97 -10v-46q-50 16 -97 16q-148 0 -253.5 -104.5t-105.5 -251.5v-648h-41z" />
<glyph unicode="s" horiz-adv-x="875" d="M123 177l38 12q25 -70 110 -119.5t182 -49.5q107 0 183 61.5t76 164.5q0 41 -15 76t-36 58t-59.5 46t-67.5 36t-78 32q-45 18 -70 28.5t-63.5 30.5t-60.5 40t-44.5 48t-33 63.5t-10.5 78.5q0 67 26.5 119.5t69 82t89.5 44.5t94 15q73 0 139.5 -34t103.5 -83l-33 -26 q-71 100 -207 100q-44 0 -85.5 -12.5t-77 -37t-57 -67t-21.5 -96.5q0 -31 8 -58t18.5 -47t33.5 -40t39 -32t49 -28.5t50 -24t55 -23.5q42 -18 61 -26t56 -27t55 -32.5t44 -37.5t38 -48t21.5 -57t9.5 -71q0 -107 -87.5 -181.5t-212.5 -74.5q-109 0 -204 57t-126 140z" />
<glyph unicode="t" horiz-adv-x="716" d="M92 983v41h172v445h41v-445h299v-41h-299v-781q0 -77 52.5 -129.5t128.5 -52.5h113v-7q-20 -14 -53 -23.5t-60 -9.5q-92 0 -157 65t-65 157v781h-172z" />
<glyph unicode="u" horiz-adv-x="1100" d="M189 376v648h41v-648q0 -147 93.5 -251.5t224.5 -104.5q133 0 226.5 104t93.5 252v648h41v-648q0 -164 -105.5 -280t-255.5 -116q-148 0 -253.5 116.5t-105.5 279.5z" />
<glyph unicode="v" horiz-adv-x="988" d="M61 1024h47l389 -970l386 970h44l-410 -1024h-46z" />
<glyph unicode="w" horiz-adv-x="1594" d="M61 1024h44l335 -975l336 975h46l335 -978l338 978h38l-350 -1024h-51l-333 965l-333 -965h-51z" />
<glyph unicode="x" horiz-adv-x="1018" d="M61 0l423 512l-423 512h54l394 -481l397 481h51l-419 -512l419 -512h-51l-397 481l-394 -481h-54z" />
<glyph unicode="y" horiz-adv-x="988" d="M61 1024h47l386 -968h3l386 968h44l-656 -1638h-43l246 614z" />
<glyph unicode="z" horiz-adv-x="1121" d="M123 0l758 983h-733v41h820l-763 -983h793v-41h-875z" />
<glyph unicode="{" horiz-adv-x="686" d="M159 625v56q36 20 62.5 44t43 54.5t26.5 58t14.5 67.5t5.5 69t1 76v606q0 98 46.5 163t117.5 65h46v-43q-89 0 -129 -51.5t-40 -153.5v-617q0 -49 -2 -82t-11.5 -77t-26.5 -77t-49 -67.5t-77 -62.5q45 -28 77 -62.5t49 -67t26.5 -76.5t11.5 -77.5t2 -82.5v-620 q0 -205 169 -205v-41h-46q-71 0 -117.5 64.5t-46.5 161.5v609q0 60 -2 98t-10.5 83t-24.5 75.5t-45 60t-71 52.5z" />
<glyph unicode="|" horiz-adv-x="619" d="M289 -307v1843h41v-1843h-41z" />
<glyph unicode="}" horiz-adv-x="686" d="M159 -538q166 0 166 205v620q0 63 4.5 104.5t20 92.5t51.5 93t93 76q-46 28 -78.5 62.5t-50 67.5t-27 77t-11.5 77t-2 82v617q0 102 -38.5 153.5t-127.5 51.5v43h46q71 0 117.5 -65t46.5 -163v-606q0 -47 1 -76t5.5 -69t14.5 -67.5t26.5 -58t43 -54.5t62.5 -44v-56 q-42 -23 -71 -52.5t-45 -60t-24.5 -75.5t-10.5 -83t-2 -98v-609q0 -97 -46.5 -161.5t-117.5 -64.5h-46v41z" />
<glyph unicode="~" horiz-adv-x="1256" d="M141 425q4 129 79 210.5t182 81.5q40 0 75 -12t66.5 -37.5t51 -46.5t50.5 -58q52 -64 98 -96t109 -32q94 0 156.5 71t64.5 180h41q-2 -126 -76.5 -209t-182.5 -83q-54 0 -102.5 24.5t-77 52t-66.5 74.5q-37 44 -60.5 67t-63.5 43.5t-83 20.5q-92 0 -154 -71.5t-66 -179.5 h-41z" />
<glyph unicode="&#xa1;" horiz-adv-x="601" d="M241 963q0 25 18 43t43 18q24 0 43 -18.5t19 -42.5q0 -26 -19 -44t-43 -18q-25 0 -43 17.5t-18 44.5zM282 -614v1269h41v-1269h-41z" />
<glyph unicode="&#xa2;" horiz-adv-x="1233" d="M169 717q0 140 68.5 260.5t186.5 193.5t257 78v190h41v-190q174 -7 312 -117v-52q-141 128 -333 128q-203 0 -347 -144t-144 -347t144 -347.5t347 -144.5q197 0 333 128v-51q-134 -110 -312 -118v-184h-41v184q-104 4 -198.5 48t-163.5 115.5t-109.5 168t-40.5 201.5z " />
<glyph unicode="&#xa3;" horiz-adv-x="1256" d="M128 742v41h164v351q0 186 113.5 303t295.5 117q117 0 220 -68t149 -175l-36 -16q-42 98 -134.5 158t-198.5 60q-165 0 -266.5 -105t-101.5 -274v-351h381v-41h-381v-701h778v-41h-819v742h-164z" />
<glyph unicode="&#xa4;" horiz-adv-x="1216" d="M203.5 742.5q0.5 155.5 106.5 268.5l-100 100l31 31l97 -103q116 106 270 107t270 -104l100 100l28 -31l-100 -97q106 -116 106 -270t-106 -270l100 -100l-28 -31l-100 102q-116 -106 -272 -106t-271 106l-97 -102l-28 31l97 100q-104 113 -103.5 268.5zM245.5 741.5 q-0.5 -149.5 105.5 -255.5q107 -107 257 -107t257 107q106 107 106 256.5t-106 255.5q-108 107 -257 106.5t-255 -106.5q-107 -107 -107.5 -256.5z" />
<glyph unicode="&#xa5;" horiz-adv-x="1387" d="M138 1536h49l507 -765l504 765h49l-530 -801h-5v-69h476v-41h-476v-246h476v-41h-476v-338h-41v338h-466v41h466v246h-466v41h466v69h-3z" />
<glyph unicode="&#xa6;" horiz-adv-x="619" d="M289 -307v737h41v-737h-41zM289 799v737h41v-737h-41z" />
<glyph unicode="&#xa7;" horiz-adv-x="1295" d="M189 223l41 15q40 -86 155 -143t275 -57q108 0 200 28t152.5 87.5t60.5 140.5q0 69 -44.5 122t-115 86.5t-156.5 62t-172 59t-156.5 67t-115 96t-44.5 137.5q0 109 87 177q-87 71 -87 176q0 88 58.5 153t147 95.5t191.5 30.5q116 0 212 -36.5t154 -96.5l-34 -23 q-53 54 -140 87.5t-190 33.5q-93 0 -172.5 -26t-132.5 -83t-53 -135q0 -69 44.5 -121.5t115 -86t156.5 -62t172 -59t156.5 -67.5t115 -95.5t44.5 -135.5q0 -104 -87 -176q87 -74 87 -177q0 -71 -38 -128t-102 -92.5t-144.5 -54.5t-169.5 -19q-169 0 -296 63t-175 157z M310 924q0 -63 36 -113t92 -81.5t133 -62t149 -52.5t150 -54t128 -67q75 72 75 159q0 73 -48.5 127.5t-130 90.5t-168 64.5t-184 65.5t-155.5 77q-77 -64 -77 -154z" />
<glyph unicode="&#xa8;" horiz-adv-x="81" d="M182 1290q0 25 18 43.5t43 18.5t43.5 -18.5t18.5 -43.5q0 -26 -18.5 -43.5t-43.5 -17.5t-43 17.5t-18 43.5zM489 1290q0 25 18 43.5t43 18.5t43.5 -18.5t18.5 -43.5q0 -26 -18.5 -43.5t-43.5 -17.5t-43 17.5t-18 43.5z" />
<glyph unicode="&#xa9;" d="M169 768q0 160 62.5 306t168.5 251.5t251.5 168t305.5 62.5t306 -62.5t252 -168t168.5 -251.5t62.5 -306t-62.5 -306t-168.5 -251.5t-252 -168t-306 -62.5t-305.5 62.5t-251.5 168t-168.5 251.5t-62.5 306zM210 768q0 -153 59 -291.5t159.5 -238.5t238.5 -159t290 -59 q153 0 291.5 59t238.5 159t159 238.5t59 291.5t-59 291.5t-159 238.5t-238.5 159t-291.5 59q-152 0 -290 -59t-238.5 -159t-159.5 -238.5t-59 -291.5zM474 763q0 137 68.5 254t185 185t252.5 68q157 0 287.5 -89t186.5 -231h-38q-56 126 -174.5 203.5t-261.5 77.5 q-127 0 -234.5 -61t-170 -169t-60.5 -238q-2 -129 60.5 -236.5t170 -168.5t234.5 -61q143 0 261.5 77t174.5 205h38q-56 -142 -186.5 -232.5t-287.5 -90.5q-136 0 -252.5 68.5t-185 185.5t-68.5 253z" />
<glyph unicode="&#xaa;" horiz-adv-x="944" d="M128 1226q0 133 93 226.5t224 93.5q95 0 172.5 -51.5t114.5 -135.5v177h39v-617h-39v174q-37 -84 -114.5 -135.5t-172.5 -51.5q-131 0 -224 93.5t-93 226.5zM169 1226q0 -117 81 -198t198 -81t200.5 81t83.5 198t-83.5 199.5t-200.5 82.5t-198 -82.5t-81 -199.5z" />
<glyph unicode="&#xab;" horiz-adv-x="1213" d="M282 571l312 376h54l-313 -376l313 -376h-54zM568 571l313 376h53l-312 -376l312 -376h-53z" />
<glyph unicode="&#xac;" horiz-adv-x="1633" d="M241 804v41h1152v-566h-41v525h-1111z" />
<glyph unicode="&#xad;" horiz-adv-x="1351" d="M241 512v41h716v-41h-716z" />
<glyph unicode="&#xae;" d="M169 768q0 160 62.5 306t168.5 251.5t251.5 168t305.5 62.5t306 -62.5t252 -168t168.5 -251.5t62.5 -306t-62.5 -306t-168.5 -251.5t-252 -168t-306 -62.5t-305.5 62.5t-251.5 168t-168.5 251.5t-62.5 306zM210 768q0 -153 59 -291.5t159.5 -238.5t238.5 -159t290 -59 q153 0 291.5 59t238.5 159t159 238.5t59 291.5t-59 291.5t-159 238.5t-238.5 159t-291.5 59q-152 0 -290 -59t-238.5 -159t-159.5 -238.5t-59 -291.5zM758 364v808h253q90 0 155 -63.5t65 -153.5q0 -82 -55.5 -143.5t-136.5 -71.5l208 -376h-44l-207 373h-197v-373h-41z M799 778h212q75 0 127 52t52 125t-52 125t-127 52h-212v-354z" />
<glyph unicode="&#xaf;" horiz-adv-x="232" d="M179 1270v41h512v-41h-512z" />
<glyph unicode="&#xb0;" horiz-adv-x="1111" d="M282 1283q0 111 80.5 192t193.5 81q111 0 192 -81t81 -192q0 -113 -81 -193.5t-192 -80.5q-113 0 -193.5 80.5t-80.5 193.5zM323 1283q0 -98 67.5 -165.5t165.5 -67.5q96 0 164 67.5t68 165.5q0 96 -68 164.5t-164 68.5q-98 0 -165.5 -68t-67.5 -165z" />
<glyph unicode="&#xb1;" horiz-adv-x="1707" d="M159 0v41h1392v-41h-1392zM159 778v41h676v369h41v-369h675v-41h-675v-368h-41v368h-676z" />
<glyph unicode="&#xb2;" horiz-adv-x="801" d="M123 806l325 318q80 82 108 128t28 97q0 83 -53 134t-137 53q-83 2 -138 -48t-61 -136l-21 2q6 92 67 148t153 54q86 -2 144 -53.5t64 -143.5q4 -58 -24 -107.5t-112 -137.5l-294 -287h465v-21h-514z" />
<glyph unicode="&#xb3;" horiz-adv-x="757" d="M164 998h18q0 -81 58 -137.5t139 -56.5t137.5 56.5t56.5 137.5t-56.5 139.5t-137.5 58.5h-128l266 317h-353v20h394l-266 -320h87q88 0 150 -63t62 -152t-62 -152t-150 -63q-90 0 -152.5 63t-62.5 152z" />
<glyph unicode="&#xb4;" horiz-adv-x="81" d="M0 1165l205 371h66l-220 -371h-51z" />
<glyph unicode="&#xb5;" horiz-adv-x="1203" d="M220 -512v1536h41v-648q0 -148 104 -252t252 -104t252 104t104 252v648h41v-1024h-41v202q-49 -100 -145 -161t-211 -61q-116 0 -211.5 60t-144.5 160v-712h-41z" />
<glyph unicode="&#xb6;" horiz-adv-x="1290" d="M261 1193q0 166 96.5 254.5t267.5 88.5h133v-1843h-41v1157h-92q-171 0 -267.5 89t-96.5 254zM947 -307v1843h41v-1843h-41z" />
<glyph unicode="&#xb7;" horiz-adv-x="601" d="M241 737q0 25 18 43.5t43 18.5q24 0 43 -19t19 -43q0 -26 -19 -43.5t-43 -17.5q-25 0 -43 17.5t-18 43.5z" />
<glyph unicode="&#xb8;" horiz-adv-x="189" d="M118 -430l30 26q31 -37 89.5 -62.5t110.5 -25.5q65 0 108 44t43 110q0 89 -71 128t-177 8l-36 33l77 169h41l-67 -156q116 25 195 -27.5t79 -154.5q0 -81 -55.5 -137.5t-136.5 -56.5q-59 0 -126 30t-104 72z" />
<glyph unicode="&#xb9;" horiz-adv-x="624" d="M159 1500v36h164v-768h-41v732h-123z" />
<glyph unicode="&#xba;" horiz-adv-x="896" d="M128 1226q0 133 93.5 226.5t226.5 93.5q134 0 228.5 -93.5t94.5 -226.5t-94.5 -226.5t-228.5 -93.5q-133 0 -226.5 93.5t-93.5 226.5zM169 1226q0 -117 81 -198t198 -81t200.5 81t83.5 198t-83.5 199.5t-200.5 82.5t-198 -82.5t-81 -199.5z" />
<glyph unicode="&#xbb;" horiz-adv-x="1213" d="M282 195l309 376l-309 376h51l312 -376l-312 -376h-51zM568 195l310 376l-310 376h52l312 -376l-312 -376h-52z" />
<glyph unicode="&#xbc;" horiz-adv-x="2170" d="M156 1510v26h197v-1024h-28v998h-169zM445 -5l1071 1536h33l-1070 -1536h-34zM1336 215l502 809h26v-781h128v-28h-128v-215h-26v215h-502zM1385 243h453v737z" />
<glyph unicode="&#xbd;" horiz-adv-x="2280" d="M156 1510v26h197v-1024h-28v998h-169zM404 0l1071 1536h33l-1070 -1536h-34zM1416 0l450 440q112 114 151 177.5t39 132.5q0 117 -74 188t-190 73q-115 2 -192 -68t-84 -188h-29q7 130 92 208t213 76q120 -4 200 -75t89 -199q4 -82 -35.5 -151t-156.5 -189l-404 -397h642 v-28h-711z" />
<glyph unicode="&#xbe;" horiz-adv-x="2209" d="M179 801h26q0 -111 80 -191t191 -80t190 80t79 191t-79 191.5t-190 80.5h-174l364 440l5 3h-492v25h548l-371 -443h120q123 0 210 -87t87 -210t-87 -210t-210 -87t-210 87t-87 210zM527 -5l1070 1536h34l-1070 -1536h-34zM1375 215l501 809h26v-781h128v-28h-128v-215 h-26v215h-501zM1423 243h453v737z" />
<glyph unicode="&#xbf;" horiz-adv-x="1213" d="M179 -238q0 75 20.5 133.5t53 95t71.5 66t78.5 55.5t72 54t53 71t20.5 98v285h41v-267q0 -68 -20.5 -119.5t-53 -83.5t-72 -59t-78.5 -54t-71.5 -60.5t-53 -88t-20.5 -126.5q0 -150 96.5 -244t251.5 -94q131 0 227 78.5t119 205.5h41q-21 -144 -128 -233t-259 -89 q-174 0 -281.5 104t-107.5 272zM497 983q0 26 18.5 43.5t42.5 17.5q25 0 43.5 -17.5t18.5 -43.5q0 -25 -18.5 -43t-43.5 -18q-24 0 -42.5 18.5t-18.5 42.5z" />
<glyph unicode="&#xc0;" horiz-adv-x="1233" d="M38 0l556 1536h46l553 -1536h-46l-143 397h-774l-143 -397h-49zM243 438h748l-374 1042zM371 2048h67l205 -371h-52z" />
<glyph unicode="&#xc1;" horiz-adv-x="1233" d="M38 0l556 1536h46l553 -1536h-46l-143 397h-774l-143 -397h-49zM243 438h748l-374 1042zM591 1677l205 371h67l-220 -371h-52z" />
<glyph unicode="&#xc2;" horiz-adv-x="1233" d="M38 0l556 1536h46l553 -1536h-46l-143 397h-774l-143 -397h-49zM243 438h748l-374 1042zM392 1677l197 371h51l200 -371h-64l-159 325l-164 -325h-61z" />
<glyph unicode="&#xc3;" horiz-adv-x="1233" d="M38 0l556 1536h46l553 -1536h-46l-143 397h-774l-143 -397h-49zM243 438h748l-374 1042zM287 1777q0 92 49.5 151t126.5 59q106 0 172 -103q51 -84 136 -84q61 0 99.5 46.5t38.5 119.5h41q0 -90 -50 -148.5t-129 -58.5q-107 0 -172 102q-48 85 -136 85q-61 0 -98 -46 t-37 -123h-41z" />
<glyph unicode="&#xc4;" horiz-adv-x="1233" d="M38 0l556 1536h46l553 -1536h-46l-143 397h-774l-143 -397h-49zM243 438h748l-374 1042zM402 1802q0 25 18 43.5t43 18.5t43.5 -18.5t18.5 -43.5q0 -26 -18.5 -43.5t-43.5 -17.5t-43 17.5t-18 43.5zM709 1802q0 25 18.5 43.5t43.5 18.5t43 -18.5t18 -43.5 q0 -26 -18 -43.5t-43 -17.5t-43.5 17.5t-18.5 43.5z" />
<glyph unicode="&#xc5;" horiz-adv-x="1233" d="M38 0l546 1505q-60 14 -99.5 61t-39.5 108q0 73 51 123.5t124 50.5q71 0 121 -50.5t50 -123.5q0 -62 -40.5 -110t-100.5 -59l543 -1505h-46l-143 397h-774l-143 -397h-49zM243 438h748l-374 1042zM484 1674q0 -56 39 -94.5t97 -38.5q56 0 94.5 38.5t38.5 94.5 q0 58 -38.5 97t-94.5 39q-58 0 -97 -39t-39 -97z" />
<glyph unicode="&#xc6;" horiz-adv-x="1717" d="M38 0l617 1536h889v-41h-738v-707h653v-40h-653v-707h738v-41h-779v397h-519l-159 -397h-49zM264 438h501v1057h-76z" />
<glyph unicode="&#xc7;" horiz-adv-x="1761" d="M169 768q0 160 62.5 306t168 251.5t251.5 168t306 62.5q215 0 396 -105.5t285 -283.5l-35 -20q-98 168 -270 268.5t-376 100.5q-152 0 -290 -59t-238.5 -159t-159.5 -238.5t-59 -291.5t59 -291.5t159.5 -238.5t238.5 -159t290 -59q204 0 376 100.5t270 268.5l35 -20 q-101 -175 -278.5 -280t-389.5 -109l-59 -136q116 25 195 -27.5t79 -154.5q0 -81 -55.5 -137.5t-136.5 -56.5q-59 0 -126 30t-104 72l31 26q31 -37 89 -62.5t110 -25.5q65 0 108 44t43 110q0 89 -71 128t-177 8l-36 33l67 149q-155 6 -295 70.5t-241.5 169.5t-161.5 248 t-60 300z" />
<glyph unicode="&#xc8;" horiz-adv-x="1190" d="M238 0v1536h778v-41h-737v-707h650v-40h-650v-707h737v-41h-778zM381 2048h67l205 -371h-51z" />
<glyph unicode="&#xc9;" horiz-adv-x="1190" d="M238 0v1536h778v-41h-737v-707h650v-40h-650v-707h737v-41h-778zM602 1677l204 371h67l-220 -371h-51z" />
<glyph unicode="&#xca;" horiz-adv-x="1190" d="M238 0v1536h778v-41h-737v-707h650v-40h-650v-707h737v-41h-778zM402 1677l197 371h51l200 -371h-64l-159 325l-164 -325h-61z" />
<glyph unicode="&#xcb;" horiz-adv-x="1190" d="M238 0v1536h778v-41h-737v-707h650v-40h-650v-707h737v-41h-778zM412 1802q0 25 18.5 43.5t43.5 18.5t43 -18.5t18 -43.5q0 -26 -18 -43.5t-43 -17.5t-43.5 17.5t-18.5 43.5zM719 1802q0 25 18.5 43.5t43.5 18.5t43 -18.5t18 -43.5q0 -26 -18 -43.5t-43 -17.5t-43.5 17.5 t-18.5 43.5z" />
<glyph unicode="&#xcc;" horiz-adv-x="514" d="M13 2048h66l205 -371h-51zM238 0v1536h41v-1536h-41z" />
<glyph unicode="&#xcd;" horiz-adv-x="514" d="M233 1677l205 371h66l-220 -371h-51zM238 0v1536h41v-1536h-41z" />
<glyph unicode="&#xce;" horiz-adv-x="514" d="M33 1677l197 371h52l199 -371h-64l-158 325l-164 -325h-62zM238 0v1536h41v-1536h-41z" />
<glyph unicode="&#xcf;" horiz-adv-x="514" d="M44 1802q0 25 18 43.5t43 18.5t43 -18.5t18 -43.5q0 -26 -18 -43.5t-43 -17.5t-43 17.5t-18 43.5zM238 0v1536h41v-1536h-41zM351 1802q0 25 18 43.5t43 18.5t43.5 -18.5t18.5 -43.5q0 -26 -18.5 -43.5t-43.5 -17.5t-43 17.5t-18 43.5z" />
<glyph unicode="&#xd0;" horiz-adv-x="1520" d="M59 748v40h166v748h359q157 0 299 -60.5t245 -163.5t163.5 -245t60.5 -299t-60.5 -299t-163.5 -245t-245 -163.5t-299 -60.5h-359v748h-166zM266 41h318q199 0 366 97t264 264t97 366t-97 366t-264 264t-366 97h-318v-707h305v-40h-305v-707z" />
<glyph unicode="&#xd1;" horiz-adv-x="1592" d="M225 0v1536h16l1085 -1434v1434h41v-1536h-15l-1086 1431v-1431h-41zM453 1777q0 92 50 151t127 59q105 0 171 -103q51 -84 136 -84q61 0 99.5 46.5t38.5 119.5h41q0 -90 -50 -148.5t-129 -58.5q-107 0 -172 102q-48 85 -135 85q-62 0 -99 -46.5t-37 -122.5h-41z" />
<glyph unicode="&#xd2;" d="M169 768q0 160 62.5 306t168 251.5t251.5 168t306 62.5q161 0 307.5 -62.5t252 -168t167.5 -251.5t62 -306t-62 -306t-167.5 -251.5t-252 -168t-307.5 -62.5q-160 0 -306 62.5t-251.5 168t-168 251.5t-62.5 306zM210 768q0 -153 59 -291.5t159.5 -238.5t238.5 -159 t290 -59q153 0 291.5 59t238.5 159t159 238.5t59 291.5t-59 291.5t-159 238.5t-238.5 159t-291.5 59q-152 0 -290 -59t-238.5 -159t-159.5 -238.5t-59 -291.5zM712 2048h66l205 -371h-51z" />
<glyph unicode="&#xd3;" d="M169 768q0 160 62.5 306t168 251.5t251.5 168t306 62.5q161 0 307.5 -62.5t252 -168t167.5 -251.5t62 -306t-62 -306t-167.5 -251.5t-252 -168t-307.5 -62.5q-160 0 -306 62.5t-251.5 168t-168 251.5t-62.5 306zM210 768q0 -153 59 -291.5t159.5 -238.5t238.5 -159 t290 -59q153 0 291.5 59t238.5 159t159 238.5t59 291.5t-59 291.5t-159 238.5t-238.5 159t-291.5 59q-152 0 -290 -59t-238.5 -159t-159.5 -238.5t-59 -291.5zM932 1677l205 371h66l-220 -371h-51z" />
<glyph unicode="&#xd4;" d="M169 768q0 160 62.5 306t168 251.5t251.5 168t306 62.5q161 0 307.5 -62.5t252 -168t167.5 -251.5t62 -306t-62 -306t-167.5 -251.5t-252 -168t-307.5 -62.5q-160 0 -306 62.5t-251.5 168t-168 251.5t-62.5 306zM210 768q0 -153 59 -291.5t159.5 -238.5t238.5 -159 t290 -59q153 0 291.5 59t238.5 159t159 238.5t59 291.5t-59 291.5t-159 238.5t-238.5 159t-291.5 59q-152 0 -290 -59t-238.5 -159t-159.5 -238.5t-59 -291.5zM732 1677l197 371h51l200 -371h-64l-159 325l-163 -325h-62z" />
<glyph unicode="&#xd5;" d="M169 768q0 160 62.5 306t168 251.5t251.5 168t306 62.5q161 0 307.5 -62.5t252 -168t167.5 -251.5t62 -306t-62 -306t-167.5 -251.5t-252 -168t-307.5 -62.5q-160 0 -306 62.5t-251.5 168t-168 251.5t-62.5 306zM210 768q0 -153 59 -291.5t159.5 -238.5t238.5 -159 t290 -59q153 0 291.5 59t238.5 159t159 238.5t59 291.5t-59 291.5t-159 238.5t-238.5 159t-291.5 59q-152 0 -290 -59t-238.5 -159t-159.5 -238.5t-59 -291.5zM627 1777q0 92 50 151t127 59q105 0 171 -103q51 -84 136 -84q61 0 99.5 46.5t38.5 119.5h41q0 -90 -50 -148.5 t-129 -58.5q-106 0 -171 102q-48 85 -136 85q-62 0 -99 -46.5t-37 -122.5h-41z" />
<glyph unicode="&#xd6;" d="M169 768q0 160 62.5 306t168 251.5t251.5 168t306 62.5q161 0 307.5 -62.5t252 -168t167.5 -251.5t62 -306t-62 -306t-167.5 -251.5t-252 -168t-307.5 -62.5q-160 0 -306 62.5t-251.5 168t-168 251.5t-62.5 306zM210 768q0 -153 59 -291.5t159.5 -238.5t238.5 -159 t290 -59q153 0 291.5 59t238.5 159t159 238.5t59 291.5t-59 291.5t-159 238.5t-238.5 159t-291.5 59q-152 0 -290 -59t-238.5 -159t-159.5 -238.5t-59 -291.5zM742 1802q0 25 18.5 43.5t43.5 18.5t43 -18.5t18 -43.5q0 -26 -18 -43.5t-43 -17.5t-43.5 17.5t-18.5 43.5z M1050 1802q0 25 18 43.5t43 18.5t43 -18.5t18 -43.5q0 -26 -18 -43.5t-43 -17.5t-43 17.5t-18 43.5z" />
<glyph unicode="&#xd7;" horiz-adv-x="1543" d="M338 200l435 435l-435 435l28 28l435 -435l433 435l31 -28l-436 -435l436 -435l-31 -28l-433 435l-435 -435z" />
<glyph unicode="&#xd8;" d="M169 768q0 160 62.5 306t168 251.5t251.5 168t306 62.5q240 0 438 -133l80 116l33 -21l-82 -115q149 -109 234.5 -275.5t85.5 -359.5q0 -160 -62 -306t-167.5 -251.5t-252 -168t-307.5 -62.5q-237 0 -432 130l-82 -118l-33 21l82 118q-149 109 -236 277t-87 360zM210 768 q0 -182 82 -341t223 -263l857 1226q-188 126 -415 126q-152 0 -290 -59t-238.5 -159t-159.5 -238.5t-59 -291.5zM548 143q184 -123 409 -123q153 0 291.5 59t238.5 159t159 238.5t59 291.5q0 183 -80.5 340.5t-221.5 261.5z" />
<glyph unicode="&#xd9;" horiz-adv-x="1500" d="M218 512v1024h41v-1024q0 -134 65 -247t178 -179t248 -66q203 0 347.5 144.5t144.5 347.5v1024h41v-1024q0 -145 -71.5 -267.5t-194 -193.5t-267.5 -71q-220 0 -376 156t-156 376zM504 2048h67l205 -371h-52z" />
<glyph unicode="&#xda;" horiz-adv-x="1500" d="M218 512v1024h41v-1024q0 -134 65 -247t178 -179t248 -66q203 0 347.5 144.5t144.5 347.5v1024h41v-1024q0 -145 -71.5 -267.5t-194 -193.5t-267.5 -71q-220 0 -376 156t-156 376zM724 1677l205 371h67l-220 -371h-52z" />
<glyph unicode="&#xdb;" horiz-adv-x="1500" d="M218 512v1024h41v-1024q0 -134 65 -247t178 -179t248 -66q203 0 347.5 144.5t144.5 347.5v1024h41v-1024q0 -145 -71.5 -267.5t-194 -193.5t-267.5 -71q-220 0 -376 156t-156 376zM525 1677l197 371h51l200 -371h-64l-159 325l-164 -325h-61z" />
<glyph unicode="&#xdc;" horiz-adv-x="1500" d="M218 512v1024h41v-1024q0 -134 65 -247t178 -179t248 -66q203 0 347.5 144.5t144.5 347.5v1024h41v-1024q0 -145 -71.5 -267.5t-194 -193.5t-267.5 -71q-220 0 -376 156t-156 376zM535 1802q0 25 18 43.5t43 18.5t43.5 -18.5t18.5 -43.5q0 -26 -18.5 -43.5t-43.5 -17.5 t-43 17.5t-18 43.5zM842 1802q0 25 18.5 43.5t43.5 18.5t43 -18.5t18 -43.5q0 -26 -18 -43.5t-43 -17.5t-43.5 17.5t-18.5 43.5z" />
<glyph unicode="&#xdd;" horiz-adv-x="1192" d="M41 1536h49l506 -765l505 765h51l-532 -801h-3v-735h-41v735h-5zM571 1677l205 371h66l-220 -371h-51z" />
<glyph unicode="&#xde;" horiz-adv-x="1241" d="M241 0v1536h41v-205h432q168 0 287.5 -118t119.5 -286q0 -167 -120 -286t-287 -119h-432v-522h-41zM282 563h432q152 0 259 106.5t107 257.5t-107 257t-259 106h-432v-727z" />
<glyph unicode="&#xdf;" horiz-adv-x="1374" d="M241 0v1134q0 174 121 288t304 114q184 0 303 -113t119 -286q0 -126 -65 -227t-171 -150q141 -25 232 -133t91 -253q0 -163 -112.5 -268.5t-268.5 -105.5h-326v41h323q140 0 241.5 94.5t101.5 238.5q0 148 -103 250.5t-253 102.5h-153v41h66q149 0 252.5 106t103.5 260 q0 156 -107 258.5t-272 102.5q-168 0 -277 -102t-109 -259v-1134h-41z" />
<glyph unicode="&#xe0;" horiz-adv-x="1162" d="M164 259q0 125 77 199t207 74h448v187q0 124 -98 204.5t-248 80.5q-148 0 -245.5 -80.5t-97.5 -204.5h-41q0 141 109.5 233t277.5 92q165 0 274.5 -92.5t109.5 -232.5v-537q0 -82 32.5 -122t108.5 -40h43v-20q-27 -20 -59 -20q-166 0 -166 202q-57 -93 -170.5 -147.5 t-241.5 -54.5q-151 0 -235.5 74.5t-84.5 204.5zM205 261q0 -112 74.5 -176.5t206.5 -64.5q134 0 245 62t165 166v244h-448q-110 0 -176.5 -63.5t-66.5 -167.5zM305 1536h66l205 -371h-51z" />
<glyph unicode="&#xe1;" horiz-adv-x="1162" d="M164 259q0 125 77 199t207 74h448v187q0 124 -98 204.5t-248 80.5q-148 0 -245.5 -80.5t-97.5 -204.5h-41q0 141 109.5 233t277.5 92q165 0 274.5 -92.5t109.5 -232.5v-537q0 -82 32.5 -122t108.5 -40h43v-20q-27 -20 -59 -20q-166 0 -166 202q-57 -93 -170.5 -147.5 t-241.5 -54.5q-151 0 -235.5 74.5t-84.5 204.5zM205 261q0 -112 74.5 -176.5t206.5 -64.5q134 0 245 62t165 166v244h-448q-110 0 -176.5 -63.5t-66.5 -167.5zM525 1165l205 371h66l-220 -371h-51z" />
<glyph unicode="&#xe2;" horiz-adv-x="1162" d="M164 259q0 125 77 199t207 74h448v187q0 124 -98 204.5t-248 80.5q-148 0 -245.5 -80.5t-97.5 -204.5h-41q0 141 109.5 233t277.5 92q165 0 274.5 -92.5t109.5 -232.5v-537q0 -82 32.5 -122t108.5 -40h43v-20q-27 -20 -59 -20q-166 0 -166 202q-57 -93 -170.5 -147.5 t-241.5 -54.5q-151 0 -235.5 74.5t-84.5 204.5zM205 261q0 -112 74.5 -176.5t206.5 -64.5q134 0 245 62t165 166v244h-448q-110 0 -176.5 -63.5t-66.5 -167.5zM325 1165l197 371h51l200 -371h-64l-159 325l-163 -325h-62z" />
<glyph unicode="&#xe3;" horiz-adv-x="1162" d="M164 259q0 125 77 199t207 74h448v187q0 124 -98 204.5t-248 80.5q-148 0 -245.5 -80.5t-97.5 -204.5h-41q0 141 109.5 233t277.5 92q165 0 274.5 -92.5t109.5 -232.5v-537q0 -82 32.5 -122t108.5 -40h43v-20q-27 -20 -59 -20q-166 0 -166 202q-57 -93 -170.5 -147.5 t-241.5 -54.5q-151 0 -235.5 74.5t-84.5 204.5zM205 261q0 -112 74.5 -176.5t206.5 -64.5q134 0 245 62t165 166v244h-448q-110 0 -176.5 -63.5t-66.5 -167.5zM220 1265q0 92 50 151t127 59q105 0 171 -103q51 -84 136 -84q61 0 99.5 46.5t38.5 119.5h41q0 -90 -50 -148.5 t-129 -58.5q-107 0 -172 102q-48 85 -135 85q-62 0 -99 -46.5t-37 -122.5h-41z" />
<glyph unicode="&#xe4;" horiz-adv-x="1162" d="M164 259q0 125 77 199t207 74h448v187q0 124 -98 204.5t-248 80.5q-148 0 -245.5 -80.5t-97.5 -204.5h-41q0 141 109.5 233t277.5 92q165 0 274.5 -92.5t109.5 -232.5v-537q0 -82 32.5 -122t108.5 -40h43v-20q-27 -20 -59 -20q-166 0 -166 202q-57 -93 -170.5 -147.5 t-241.5 -54.5q-151 0 -235.5 74.5t-84.5 204.5zM205 261q0 -112 74.5 -176.5t206.5 -64.5q134 0 245 62t165 166v244h-448q-110 0 -176.5 -63.5t-66.5 -167.5zM335 1290q0 25 18.5 43.5t43.5 18.5t43 -18.5t18 -43.5q0 -26 -18 -43.5t-43 -17.5t-43.5 17.5t-18.5 43.5z M643 1290q0 25 18 43.5t43 18.5t43 -18.5t18 -43.5q0 -26 -18 -43.5t-43 -17.5t-43 17.5t-18 43.5z" />
<glyph unicode="&#xe5;" horiz-adv-x="1162" d="M164 259q0 125 77 199t207 74h448v187q0 124 -98 204.5t-248 80.5q-148 0 -245.5 -80.5t-97.5 -204.5h-41q0 141 109.5 233t277.5 92q165 0 274.5 -92.5t109.5 -232.5v-537q0 -82 32.5 -122t108.5 -40h43v-20q-27 -20 -59 -20q-166 0 -166 202q-57 -93 -170.5 -147.5 t-241.5 -54.5q-151 0 -235.5 74.5t-84.5 204.5zM205 261q0 -112 74.5 -176.5t206.5 -64.5q134 0 245 62t165 166v244h-448q-110 0 -176.5 -63.5t-66.5 -167.5zM376 1311q0 73 50.5 123.5t123.5 50.5q71 0 121.5 -50.5t50.5 -123.5q0 -71 -50.5 -121.5t-121.5 -50.5 q-73 0 -123.5 50.5t-50.5 121.5zM415 1311q0 -56 39 -94.5t96 -38.5q56 0 95 39t39 94q0 57 -39 96t-95 39q-58 0 -96.5 -38.5t-38.5 -96.5z" />
<glyph unicode="&#xe6;" horiz-adv-x="2135" d="M164 292q0 137 93.5 224.5t239.5 87.5h445v69q0 144 -97.5 237.5t-245.5 93.5q-119 0 -224 -60.5t-147 -152.5l-39 13q35 104 150.5 172t259.5 68q155 0 260.5 -91t120.5 -236q62 146 195.5 236.5t296.5 90.5q140 0 258.5 -66t190.5 -182t81 -258v-16h-1022v-20 q2 -132 68.5 -243t179 -175t244.5 -64q159 0 287 92.5t179 238.5h41q-52 -163 -192 -267t-315 -104q-154 0 -282 81t-194 215q-100 -131 -227.5 -213.5t-230.5 -82.5q-164 0 -269 88t-105 224zM205 292q0 -119 93.5 -195.5t239.5 -76.5q100 0 224 83t216 212q-38 89 -38 197 q0 39 2 51h-445q-127 0 -209.5 -77t-82.5 -194zM983 563h978q-21 187 -160.5 314t-328.5 127q-190 0 -328 -125.5t-161 -315.5z" />
<glyph unicode="&#xe7;" horiz-adv-x="1290" d="M143 512q0 144 72 266.5t194.5 194t266.5 71.5q165 0 300.5 -93.5t195.5 -243.5h-40q-58 134 -182.5 215.5t-273.5 81.5q-133 0 -247 -64t-180.5 -178t-64.5 -250q-2 -136 64.5 -250t180.5 -178t247 -64q149 0 273.5 81.5t182.5 215.5h40q-60 -148 -192.5 -241.5 t-295.5 -95.5l-59 -136q116 25 195 -27.5t79 -154.5q0 -81 -55.5 -137.5t-136.5 -56.5q-59 0 -126.5 30t-104.5 72l31 26q31 -37 89.5 -62.5t110.5 -25.5q65 0 108 44t43 110q0 89 -71.5 128t-177.5 8l-36 33l70 149q-136 9 -251 82.5t-182 193t-67 256.5z" />
<glyph unicode="&#xe8;" horiz-adv-x="1338" d="M143 512q0 144 72 266.5t194.5 194t266.5 71.5q140 0 258.5 -66t190.5 -182t81 -258v-16h-1022v-20q2 -132 68.5 -243t179 -175t244.5 -64q159 0 287 92.5t179 238.5h41q-52 -163 -192 -267t-315 -104q-144 0 -266.5 71.5t-194.5 194t-72 266.5zM187 563h978 q-21 187 -160.5 314t-328.5 127q-190 0 -328 -125.5t-161 -315.5zM430 1556h67l204 -371h-51z" />
<glyph unicode="&#xe9;" horiz-adv-x="1338" d="M143 512q0 144 72 266.5t194.5 194t266.5 71.5q140 0 258.5 -66t190.5 -182t81 -258v-16h-1022v-20q2 -132 68.5 -243t179 -175t244.5 -64q159 0 287 92.5t179 238.5h41q-52 -163 -192 -267t-315 -104q-144 0 -266.5 71.5t-194.5 194t-72 266.5zM187 563h978 q-21 187 -160.5 314t-328.5 127q-190 0 -328 -125.5t-161 -315.5zM650 1185l205 371h67l-221 -371h-51z" />
<glyph unicode="&#xea;" horiz-adv-x="1338" d="M143 512q0 144 72 266.5t194.5 194t266.5 71.5q140 0 258.5 -66t190.5 -182t81 -258v-16h-1022v-20q2 -132 68.5 -243t179 -175t244.5 -64q159 0 287 92.5t179 238.5h41q-52 -163 -192 -267t-315 -104q-144 0 -266.5 71.5t-194.5 194t-72 266.5zM187 563h978 q-21 187 -160.5 314t-328.5 127q-190 0 -328 -125.5t-161 -315.5zM451 1185l197 371h51l200 -371h-64l-159 325l-164 -325h-61z" />
<glyph unicode="&#xeb;" horiz-adv-x="1338" d="M143 512q0 144 72 266.5t194.5 194t266.5 71.5q140 0 258.5 -66t190.5 -182t81 -258v-16h-1022v-20q2 -132 68.5 -243t179 -175t244.5 -64q159 0 287 92.5t179 238.5h41q-52 -163 -192 -267t-315 -104q-144 0 -266.5 71.5t-194.5 194t-72 266.5zM187 563h978 q-21 187 -160.5 314t-328.5 127q-190 0 -328 -125.5t-161 -315.5zM461 1311q0 25 18 43t43 18t43.5 -18t18.5 -43q0 -26 -18.5 -44t-43.5 -18t-43 17.5t-18 44.5zM768 1311q0 25 18 43t43 18t43.5 -18t18.5 -43q0 -26 -18.5 -44t-43.5 -18t-43 17.5t-18 44.5z" />
<glyph unicode="&#xec;" horiz-adv-x="517" d="M13 1536h66l205 -371h-51zM238 0v1024h41v-1024h-41z" />
<glyph unicode="&#xed;" horiz-adv-x="517" d="M233 1165l205 371h66l-220 -371h-51zM238 0v1024h41v-1024h-41z" />
<glyph unicode="&#xee;" horiz-adv-x="517" d="M33 1165l197 371h52l199 -371h-64l-158 325l-164 -325h-62zM238 0v1024h41v-1024h-41z" />
<glyph unicode="&#xef;" horiz-adv-x="517" d="M44 1290q0 25 18 43.5t43 18.5t43 -18.5t18 -43.5q0 -26 -18 -43.5t-43 -17.5t-43 17.5t-18 43.5zM238 0v1024h41v-1024h-41zM351 1290q0 25 18 43.5t43 18.5t43.5 -18.5t18.5 -43.5q0 -26 -18.5 -43.5t-43.5 -17.5t-43 17.5t-18 43.5z" />
<glyph unicode="&#xf0;" horiz-adv-x="1346" d="M143 512q0 144 72 266.5t194.5 194t266.5 71.5q149 0 274 -77t194 -204q-34 184 -113.5 335.5t-195.5 253.5l-128 -164l-31 25l128 164q-180 144 -394 144v41q224 0 419 -154l103 133l31 -28l-103 -131q161 -143 254.5 -372t93.5 -498q0 -108 -42.5 -206t-114 -169.5 t-169.5 -114t-206 -42.5q-144 0 -266.5 71.5t-194.5 194t-72 266.5zM184 512q0 -203 144.5 -347.5t347.5 -144.5t347 144.5t144 347.5t-144 347.5t-347 144.5t-347.5 -144.5t-144.5 -347.5z" />
<glyph unicode="&#xf1;" horiz-adv-x="1185" d="M225 0v1024h41v-189q46 95 137 152t201 57q157 0 266.5 -110t109.5 -266v-668h-40v668q0 140 -98 239t-238 99t-239 -99t-99 -239v-668h-41zM274 1265q0 92 50 151t127 59q105 0 171 -103q51 -84 136 -84q61 0 99.5 46.5t38.5 119.5h41q0 -90 -50 -148.5t-129 -58.5 q-107 0 -172 102q-48 85 -135 85q-62 0 -99 -46.5t-37 -122.5h-41z" />
<glyph unicode="&#xf2;" horiz-adv-x="1351" d="M143 512q0 144 72 266.5t194.5 194t266.5 71.5q108 0 206 -42.5t169.5 -114t114 -169.5t42.5 -206t-42.5 -206t-114 -169.5t-169.5 -114t-206 -42.5q-144 0 -266.5 71.5t-194.5 194t-72 266.5zM184 512q0 -203 144.5 -347.5t347.5 -144.5t347 144.5t144 347.5t-144 347.5 t-347 144.5t-347.5 -144.5t-144.5 -347.5zM430 1536h67l204 -371h-51z" />
<glyph unicode="&#xf3;" horiz-adv-x="1351" d="M143 512q0 144 72 266.5t194.5 194t266.5 71.5q108 0 206 -42.5t169.5 -114t114 -169.5t42.5 -206t-42.5 -206t-114 -169.5t-169.5 -114t-206 -42.5q-144 0 -266.5 71.5t-194.5 194t-72 266.5zM184 512q0 -203 144.5 -347.5t347.5 -144.5t347 144.5t144 347.5t-144 347.5 t-347 144.5t-347.5 -144.5t-144.5 -347.5zM650 1165l205 371h67l-221 -371h-51z" />
<glyph unicode="&#xf4;" horiz-adv-x="1351" d="M143 512q0 144 72 266.5t194.5 194t266.5 71.5q108 0 206 -42.5t169.5 -114t114 -169.5t42.5 -206t-42.5 -206t-114 -169.5t-169.5 -114t-206 -42.5q-144 0 -266.5 71.5t-194.5 194t-72 266.5zM184 512q0 -203 144.5 -347.5t347.5 -144.5t347 144.5t144 347.5t-144 347.5 t-347 144.5t-347.5 -144.5t-144.5 -347.5zM451 1165l197 371h51l200 -371h-64l-159 325l-164 -325h-61z" />
<glyph unicode="&#xf5;" horiz-adv-x="1351" d="M143 512q0 144 72 266.5t194.5 194t266.5 71.5q108 0 206 -42.5t169.5 -114t114 -169.5t42.5 -206t-42.5 -206t-114 -169.5t-169.5 -114t-206 -42.5q-144 0 -266.5 71.5t-194.5 194t-72 266.5zM184 512q0 -203 144.5 -347.5t347.5 -144.5t347 144.5t144 347.5t-144 347.5 t-347 144.5t-347.5 -144.5t-144.5 -347.5zM346 1265q0 92 49.5 151t126.5 59q106 0 172 -103q51 -84 135 -84q61 0 100 46.5t39 119.5h41q0 -90 -50.5 -148.5t-129.5 -58.5q-106 0 -171 102q-48 85 -136 85q-61 0 -98 -46t-37 -123h-41z" />
<glyph unicode="&#xf6;" horiz-adv-x="1351" d="M143 512q0 144 72 266.5t194.5 194t266.5 71.5q108 0 206 -42.5t169.5 -114t114 -169.5t42.5 -206t-42.5 -206t-114 -169.5t-169.5 -114t-206 -42.5q-144 0 -266.5 71.5t-194.5 194t-72 266.5zM184 512q0 -203 144.5 -347.5t347.5 -144.5t347 144.5t144 347.5t-144 347.5 t-347 144.5t-347.5 -144.5t-144.5 -347.5zM461 1290q0 25 18 43.5t43 18.5t43.5 -18.5t18.5 -43.5q0 -26 -18.5 -43.5t-43.5 -17.5t-43 17.5t-18 43.5zM768 1290q0 25 18 43.5t43 18.5t43.5 -18.5t18.5 -43.5q0 -26 -18.5 -43.5t-43.5 -17.5t-43 17.5t-18 43.5z" />
<glyph unicode="&#xf7;" horiz-adv-x="1584" d="M179 543v41h1229v-41h-1229zM732 215q0 25 18.5 43t43.5 18q24 0 42.5 -18.5t18.5 -42.5q0 -26 -18.5 -43.5t-42.5 -17.5q-25 0 -43.5 17.5t-18.5 43.5zM732 911q0 25 18.5 43.5t43.5 18.5q24 0 42.5 -18.5t18.5 -43.5q0 -26 -18.5 -43.5t-42.5 -17.5q-25 0 -43.5 17.5 t-18.5 43.5z" />
<glyph unicode="&#xf8;" horiz-adv-x="1351" d="M143 512q0 144 72 266.5t194.5 194t266.5 71.5q157 0 292 -87l130 187l28 -18l-133 -189q100 -74 157.5 -185.5t57.5 -239.5q0 -108 -42.5 -206t-114 -169.5t-169.5 -114t-206 -42.5q-158 0 -289 87l-134 -192l-28 17l133 192q-100 74 -157.5 186.5t-57.5 241.5zM184 512 q0 -119 52.5 -222t144.5 -172l564 806q-121 80 -269 80q-203 0 -347.5 -144.5t-144.5 -347.5zM410 100q121 -80 266 -80q203 0 347 144.5t144 347.5q0 118 -52 220.5t-142 171.5z" />
<glyph unicode="&#xf9;" horiz-adv-x="1100" d="M189 376v648h41v-648q0 -147 93.5 -251.5t224.5 -104.5q133 0 226.5 104t93.5 252v648h41v-648q0 -164 -105.5 -280t-255.5 -116q-148 0 -253.5 116.5t-105.5 279.5zM302 1536h67l204 -371h-51z" />
<glyph unicode="&#xfa;" horiz-adv-x="1100" d="M189 376v648h41v-648q0 -147 93.5 -251.5t224.5 -104.5q133 0 226.5 104t93.5 252v648h41v-648q0 -164 -105.5 -280t-255.5 -116q-148 0 -253.5 116.5t-105.5 279.5zM522 1165l205 371h67l-221 -371h-51z" />
<glyph unicode="&#xfb;" horiz-adv-x="1100" d="M189 376v648h41v-648q0 -147 93.5 -251.5t224.5 -104.5q133 0 226.5 104t93.5 252v648h41v-648q0 -164 -105.5 -280t-255.5 -116q-148 0 -253.5 116.5t-105.5 279.5zM323 1165l197 371h51l200 -371h-64l-159 325l-164 -325h-61z" />
<glyph unicode="&#xfc;" horiz-adv-x="1100" d="M189 376v648h41v-648q0 -147 93.5 -251.5t224.5 -104.5q133 0 226.5 104t93.5 252v648h41v-648q0 -164 -105.5 -280t-255.5 -116q-148 0 -253.5 116.5t-105.5 279.5zM333 1290q0 25 18 43.5t43 18.5t43.5 -18.5t18.5 -43.5q0 -26 -18.5 -43.5t-43.5 -17.5t-43 17.5 t-18 43.5zM640 1290q0 25 18 43.5t43 18.5t43.5 -18.5t18.5 -43.5q0 -26 -18.5 -43.5t-43.5 -17.5t-43 17.5t-18 43.5z" />
<glyph unicode="&#xfd;" horiz-adv-x="988" d="M61 1024h47l386 -968h3l386 968h44l-656 -1638h-43l246 614zM471 1165l205 371h66l-220 -371h-51z" />
<glyph unicode="&#xfe;" horiz-adv-x="1448" d="M241 -614v2314h41v-983q60 146 193 236.5t298 90.5q144 0 266.5 -71.5t194.5 -194t72 -266.5t-72 -266.5t-194.5 -194t-266.5 -71.5q-165 0 -298 90.5t-193 236.5v-921h-41zM282 512q0 -134 65 -247t178 -179t248 -66q203 0 347.5 144.5t144.5 347.5t-144.5 347.5 t-347.5 144.5q-135 0 -248 -66t-178 -179t-65 -247z" />
<glyph unicode="&#xff;" horiz-adv-x="988" d="M61 1024h47l386 -968h3l386 968h44l-656 -1638h-43l246 614zM282 1290q0 25 18 43.5t43 18.5t43 -18.5t18 -43.5q0 -26 -18 -43.5t-43 -17.5t-43 17.5t-18 43.5zM589 1290q0 25 18 43.5t43 18.5t43.5 -18.5t18.5 -43.5q0 -26 -18.5 -43.5t-43.5 -17.5t-43 17.5t-18 43.5z " />
<glyph unicode="&#x152;" horiz-adv-x="2137" d="M169 768q0 160 62.5 306t168 251.5t251.5 168t306 62.5q109 0 228 -33v13h779v-41h-738v-707h653v-40h-653v-707h738v-41h-779v13q-119 -33 -228 -33q-160 0 -306 62.5t-251.5 168t-168 251.5t-62.5 306zM210 768q0 -153 59 -291.5t159.5 -238.5t238.5 -159t290 -59 q106 0 228 34v1428q-122 34 -228 34q-152 0 -290 -59t-238.5 -159t-159.5 -238.5t-59 -291.5z" />
<glyph unicode="&#x153;" horiz-adv-x="2365" d="M143 512q0 144 72 266.5t194.5 194t266.5 71.5q180 0 322.5 -110t191.5 -281q46 170 188.5 280.5t323.5 110.5q140 0 258.5 -66t190.5 -182t81 -258v-16h-1021v-20q2 -132 68 -243t178.5 -175t244.5 -64q159 0 287 92.5t179 238.5h41q-52 -163 -192 -267t-315 -104 q-181 0 -323.5 110.5t-188.5 280.5q-49 -171 -191.5 -281t-322.5 -110q-144 0 -266.5 71.5t-194.5 194t-72 266.5zM184 512q0 -203 144.5 -347.5t347.5 -144.5t347 144.5t144 347.5t-144 347.5t-347 144.5t-347.5 -144.5t-144.5 -347.5zM1213 563h978q-21 187 -160.5 314 t-328.5 127q-190 0 -328 -125.5t-161 -315.5z" />
<glyph unicode="&#x178;" horiz-adv-x="1192" d="M41 1536h49l506 -765l505 765h51l-532 -801h-3v-735h-41v735h-5zM381 1802q0 25 18.5 43.5t43.5 18.5t43 -18.5t18 -43.5q0 -26 -18 -43.5t-43 -17.5t-43.5 17.5t-18.5 43.5zM689 1802q0 25 18 43.5t43 18.5t43.5 -18.5t18.5 -43.5q0 -26 -18.5 -43.5t-43.5 -17.5 t-43 17.5t-18 43.5z" />
<glyph unicode="&#x2c6;" horiz-adv-x="81" d="M118 1165l197 371h51l200 -371h-64l-159 325l-164 -325h-61z" />
<glyph unicode="&#x2dc;" horiz-adv-x="197" d="M115 1326q0 92 50 151t127 59q106 0 171 -102q52 -85 136 -85q61 0 99.5 47t38.5 120h41q0 -90 -50.5 -149t-128.5 -59q-105 0 -171 103q-47 84 -136 84q-62 0 -99 -46.5t-37 -122.5h-41z" />
<glyph unicode="&#x2000;" horiz-adv-x="1024" />
<glyph unicode="&#x2001;" horiz-adv-x="2048" />
<glyph unicode="&#x2002;" horiz-adv-x="1024" />
<glyph unicode="&#x2003;" horiz-adv-x="2048" />
<glyph unicode="&#x2004;" horiz-adv-x="682" />
<glyph unicode="&#x2005;" horiz-adv-x="512" />
<glyph unicode="&#x2006;" horiz-adv-x="341" />
<glyph unicode="&#x2007;" horiz-adv-x="341" />
<glyph unicode="&#x2008;" horiz-adv-x="256" />
<glyph unicode="&#x2009;" horiz-adv-x="409" />
<glyph unicode="&#x200a;" horiz-adv-x="113" />
<glyph unicode="&#x2010;" horiz-adv-x="1195" d="M241 512v41h716v-41h-716z" />
<glyph unicode="&#x2011;" horiz-adv-x="1195" d="M241 512v41h716v-41h-716z" />
<glyph unicode="&#x2012;" horiz-adv-x="1195" d="M241 512v41h716v-41h-716z" />
<glyph unicode="&#x2013;" horiz-adv-x="1502" d="M241 512v41h1024v-41h-1024z" />
<glyph unicode="&#x2014;" horiz-adv-x="2048" d="M0 512v41h2048v-41h-2048z" />
<glyph unicode="&#x2018;" horiz-adv-x="509" d="M202 937l192 619h44l-190 -619h-46z" />
<glyph unicode="&#x2019;" horiz-adv-x="337" d="M102 937l190 619h46l-192 -619h-44z" />
<glyph unicode="&#x201a;" horiz-adv-x="509" d="M95 -399l189 619h46l-192 -619h-43z" />
<glyph unicode="&#x201c;" horiz-adv-x="711" d="M230 937l192 619h44l-190 -619h-46zM435 937l192 619h44l-190 -619h-46z" />
<glyph unicode="&#x201d;" horiz-adv-x="701" d="M74 937l190 619h46l-192 -619h-44zM279 937l189 619h47l-192 -619h-44z" />
<glyph unicode="&#x201e;" horiz-adv-x="724" d="M82 -399l189 619h46l-192 -619h-43zM384 -399l189 619h47l-192 -619h-44z" />
<glyph unicode="&#x2022;" horiz-adv-x="1082" d="M282 666q0 106 77.5 183.5t183.5 77.5q104 0 182.5 -78t78.5 -183q0 -109 -78 -185.5t-183 -76.5q-107 0 -184 76t-77 186z" />
<glyph unicode="&#x2026;" horiz-adv-x="1617" d="M241 41q0 25 18 43t43 18q24 0 43 -18.5t19 -42.5q0 -26 -19 -43.5t-43 -17.5q-25 0 -43 17.5t-18 43.5zM753 41q0 25 18 43t43 18q24 0 43 -18.5t19 -42.5q0 -26 -19 -43.5t-43 -17.5q-25 0 -43 17.5t-18 43.5zM1257 41q0 25 18 43t43 18q24 0 43 -18.5t19 -42.5 q0 -26 -19 -43.5t-43 -17.5q-25 0 -43 17.5t-18 43.5z" />
<glyph unicode="&#x202f;" horiz-adv-x="409" />
<glyph unicode="&#x2039;" horiz-adv-x="721" d="M159 571l312 376h54l-313 -376l313 -376h-54z" />
<glyph unicode="&#x203a;" horiz-adv-x="721" d="M200 195l309 376l-309 376h51l312 -376l-312 -376h-51z" />
<glyph unicode="&#x205f;" horiz-adv-x="512" />
<glyph unicode="&#x20ac;" horiz-adv-x="1694" d="M44 579v41h168q-12 74 -12 148q0 69 12 138h-168v41h176q60 264 274.5 436.5t493.5 172.5q141 0 273 -48.5t237 -140.5l-16 -41q-102 92 -229 141t-265 49q-262 0 -464.5 -160.5t-262.5 -408.5h1093l-15 -41h-1086q-12 -66 -12 -138q0 -74 15 -148h988l-15 -41h-965 q64 -245 264.5 -402t459.5 -157q145 0 279.5 55t242.5 158v-54q-107 -96 -242.5 -147.5t-279.5 -51.5q-275 0 -488 169.5t-277 429.5h-179z" />
<glyph unicode="&#x2122;" horiz-adv-x="1633" d="M138 1498v38h461v-38h-212v-686h-39v686h-210zM732 812v724h44l297 -440l294 440h41v-724h-38v655l-300 -443l-297 443v-655h-41z" />
<glyph unicode="&#x25fc;" horiz-adv-x="1024" d="M0 0v1024h1024v-1024h-1024z" />
</font>
</defs>
</svg>
